Today is a free download without charge Download

Discovery: Золотая Лихорадка. Аляска. Вверх по ручью Смитта / Gold Rush. Alaska. Up Smith Creek (2012) SATRip [Сезон 3: эпизод 8]

Reply to topic
 
Author
Message

UndegraundMen ®

Longevity: 7 years 7 months

Posts: 25145

Торрент-статистика

Post 08-Mar-2013 14:04

[Quote]

Discovery: Золотая Лихорадка. Аляска. Вверх по ручью Смитта / Gold Rush. Alaska. Up Smith Creek (2012) SATRip [Сезон 3: эпизод 8]- Автор Rip'а: skorpionN
Русское название: Discovery: Золотая Лихорадка. Аляска. Вверх по ручью Смитта
Оригинальное название: Gold Rush. Alaska. Up Smith Creek
Режиссер / Телекомпания: Discovery Channel
Год выпуска: 2012
Жанр: Документальный
Описание:
Их шестеро, у них есть ограниченное время и ресурсы, им необходимо добыть золото, иначе их семьям придется очень тяжело, каждый день для них суровое испытание. Каждый день может принести им миллионы а может их отобрать! Повезет ли?!
Продолжительность: 00:43:03
Перевод: Одноголосый закадровый, профессиональный
Видеокодек: Xvid
Битрейт видео: ~1700 kbps
Размер кадра: 704x400
Качество видео: SATRip
Аудиокодек: AC3, 2 ch.
Битрейт аудио: 192 kbps

MediaInfo:

Формат : AVI
Формат/Информация : Audio Video Interleave
Размер файла : 586 Мбайт
Продолжительность : 43 м.
Общий поток : 1902 Кбит/сек
Программа кодирования : VirtualDubMod 1.5.10.3 | www.virtualdub-fr.org || (build 2550/release)
Библиотека кодирования : VirtualDubMod build 2550/release
Видео
Идентификатор : 0
Формат : MPEG-4 Visual
Профиль формата : Advanced [email protected]
Параметр BVOP формата : 2
Параметр QPel формата : Нет
Параметр GMC формата : Без точки перехода
Параметр матрицы формата : Default (H.263)
Идентификатор кодека : XVID
Идентификатор кодека/Подсказка : XviD
Продолжительность : 43 м.
Битрейт : 1700 Кбит/сек
Ширина : 704 пикселя
Высота : 400 пикселей
Соотношение сторон : 16:9
Частота кадров : 25,000 кадров/сек
Цветовое пространство : YUV
Субдискретизация насыщенности : 4:2:0
Битовая глубина : 8 бит
Тип развёртки : Прогрессивная
Метод сжатия : С потерями
Бит/(Пиксели*Кадры) : 0.241
Размер потока : 524 Мбайт (89%)
Библиотека кодирования : XviD 1.2.1 (UTC 2008-12-04)
Аудио
Идентификатор : 1
Формат : AC-3
Формат/Информация : Audio Coding 3
Расширение режима : CM (complete main)
Параметр Endianness формата : Big
Идентификатор кодека : 2000
Продолжительность : 43 м.
Вид битрейта : Постоянный
Битрейт : 192 Кбит/сек
Каналы : 2 канала
Расположение каналов : Front: L R
Частота : 48,0 КГц
Битовая глубина : 16 бит
Метод сжатия : С потерями
Размер потока : 59,1 Мбайт (10%)
Выравнивание : Разделение по промежуткам
Продолжительность промежутка : 40 мс. (1,00 видеокадр)
Время предзагрузки промежутка : 500 мс.
Скриншоты:
       
       
Время раздачи: 24/7 ( до первых скачавших, перебои со связью бывают,зависит от провайдера)
Other forum [Profile] [PM]
Display posts from previous:    
Reply to topic

The time now is: Today 22:48

All times are GMT + 3 Hours



You cannot post new topics in this forum
You cannot reply to topics in this forum
You cannot edit your posts in this forum
You cannot delete your posts in this forum
You cannot vote in polls in this forum
You cannot attach files in this forum
You cannot download files in this forum