Today is a free download without charge Download

Discovery: Нил. Страна фараонов и крокодилов / Nile. Crocodiles and Kings (2004, США) SATRip

Reply to topic
 
Author
Message

UndegraundMen ®

Longevity: 7 years 7 months

Posts: 25145

Торрент-статистика

Post 08-Mar-2013 12:06

[Quote]

Нил. Страна фараонов и крокодилов / Nile. Crocodiles and Kings (2004, США) SATRip- Русское название: Нил. Страна фараонов и крокодилов
Оригинальное название: Nile. Crocodiles and Kings
Режиссер / Телекомпания: BBC & Discovery Channel
Год выпуска: 2004, США
Жанр: Документальный
Описание:
Фильм рассказывает о самой длинной реке на Земле. Нил являлся главной артерией древнеегипетской цивилизации. Но мы расскажем, как река привела к падению Древнего Египта.
Продолжительность: 00:45:54
Перевод: Дублированный
Видеокодек: DivX 3
Битрейт видео: ~1432 kb/s
Размер кадра: 704x528
Качество видео: SATRip
Аудиокодек: MP3
Битрейт аудио: 96.00 kb/s

MediaInfo

Общее
Формат : AVI
Формат/Информация : Audio Video Interleave
Размер файла : 505 Мбайт
Продолжительность : 45 м.
Общий поток : 1538 Кбит/сек
Видео
Идентификатор : 0
Формат : MPEG-4 Visual
Параметр BVOP формата : 1
Параметр QPel формата : Нет
Параметр GMC формата : Без точки перехода
Параметр матрицы формата : Default (H.263)
Режим смешивания : Сжатый битовый поток
Идентификатор кодека : DX50
Идентификатор кодека/Подсказка : DivX 5
Продолжительность : 45 м.
Битрейт : 1432 Кбит/сек
Ширина : 704 пикселя
Высота : 528 пикселей
Соотношение сторон : 4:3
Частота кадров : 25,000 кадров/сек
Цветовое пространство : YUV
Субдискретизация насыщенности : 4:2:0
Битовая глубина : 8 бит
Тип развёртки : Прогрессивная
Метод сжатия : С потерями
Бит/(Пиксели*Кадры) : 0.154
Размер потока : 470 Мбайт (93%)
Заголовок : Video
Библиотека кодирования : DivX 5.2.1 Alpha (UTC 2004-09-08)
Аудио
Идентификатор : 1
Формат : MPEG Audio
Версия формата : Version 1
Профиль формата : Layer 3
Идентификатор кодека : 55
Идентификатор кодека/Подсказка : MP3
Продолжительность : 45 м.
Вид битрейта : Постоянный
Битрейт : 96,0 Кбит/сек
Каналы : 2 канала
Частота : 44,1 КГц
Метод сжатия : С потерями
Размер потока : 31,5 Мбайт (6%)
Выравнивание : Разделение по промежуткам
Продолжительность промежутка : 40 мс. (1,00 видеокадр)
Время предзагрузки промежутка : 500 мс.
Заголовок : Audio
Скриншоты:

Время раздачи: с 11:00 до 21:00(не всегда)
Other forum [Profile] [PM]
Display posts from previous:    
Reply to topic

The time now is: Today 11:10

All times are GMT + 3 Hours



You cannot post new topics in this forum
You cannot reply to topics in this forum
You cannot edit your posts in this forum
You cannot delete your posts in this forum
You cannot vote in polls in this forum
You cannot attach files in this forum
You cannot download files in this forum