Today is a free download without charge Download

Зимний вальс (1-4 серии из 4) (2012) DVB

Reply to topic
 
Author
Message

UndegraundMen ®

Longevity: 8 years 9 months

Posts: 25145

Торрент-статистика

Post 07-Mar-2013 14:35

[Quote]

Зимний вальс (1-4 серии из 4) (2012) DVB- Оригинальное название: Зимний вальс
Год выпуска: 2012
Страна: Россия / "Студия Паламеда"
Жанр: мелодрама-
Премьера (РФ): 16 февраля 2013 (Россия 1)
Режиссер: Вадим Арапов, Вячеслав Падалка
Актеры: Анна Полупанова, Дмитрий Орлов, Алёна Ивченко, Святослав Астрамович, Анна Носатова, Геннадий Гарбук, Алексия Фроемчук, Владимир Божков, Олег Ткачев, Елена Акулёнок, Антонина Бендова, Александр Брухацкий, Олег Вебер, Юрий Вутто, Елена Дубровская, Андрей Карако, Юлианна Михневич, Руслан Чернецкий, Валерий Шушкевич
Описание фильма:
У Анны хорошая работа, любящий муж и прекрасная дочка. Но все рушится в одно мгновенье, когда ей переходит дорогу лучшая подруга… С работы Анну с треском увольняют, муж уходит, и кажется, что ей, оставшейся одной с маленькой дочерью, помощи ждать неоткуда.Не все благополучно и в семье Владимира, подполковника в отставке. Потерявшая ребенка пара мучительно расстается.Но невзгоды и предательства не ломают героев. И их случайная встреча дает надежду на хоть и позднюю, но такую настоящую любовь..-Продолжительность: серия ~ 00:44
Качество видео: DVB
Видеокодек: MPEG2
Битрейт видео: ~5350 kbps avg
Размер кадра: 720x576**768х576 (4:3)
Аудиокодек: MPEG1 Layer 2
Аудио: 48.0 kHz, 2 ch ~256 Kbps avg
Субтитры: отсутствуют
.

Media Info:

Формат : MPEG-PS
Размер файла : 1,79 Гбайт
Продолжительность : 44 м.
Режим общего битрейта : Переменный
Общий поток : 5720 Кбит/сек
Библиотека кодирования : (c) 1998-2012 Womble Multimedia, Inc. / MPEG Video Wizard DVD 5.0.1.100 (03/2011) / Sep 7 2012
Видео
Идентификатор : 224 (0xE0)
Формат : MPEG Video
Версия формата : Version 2
Профиль формата : [email protected]
Параметр BVOP формата : Да
Параметр матрицы формата : Выборочная
Параметр GOP формата : Variable
Продолжительность : 44 м.
Вид битрейта : Переменный
Битрейт : 5350 Кбит/сек
Максимальный битрейт : 15,0 Мбит/сек
Ширина : 720 пикселей
Высота : 576 пикселей
Соотношение сторон : 4:3
Частота кадров : 25,000 кадров/сек
Стандарт вещания : PAL
Цветовое пространство : YUV
Субдискретизация насыщенности : 4:2:0
Битовая глубина : 8 бит
Тип развёртки : Чересстрочная
Порядок развёртки : Верхнее поле первое
Метод сжатия : С потерями
Бит/(Пиксели*Кадры) : 0.516
Размер потока : 1,68 Гбайт (94%)
Аудио
Идентификатор : 192 (0xC0)
Формат : MPEG Audio
Версия формата : Version 1
Профиль формата : Layer 2
Продолжительность : 44 м.
Вид битрейта : Постоянный
Битрейт : 256 Кбит/сек
Каналы : 2 канала
Частота : 48,0 КГц
Метод сжатия : С потерями
Задержка видео : -80 мс.
Размер потока : 82,2 Мбайт (4%)
Скриншоты:
         
         
Other forum [Profile] [PM]
Display posts from previous:    
Reply to topic

The time now is: Today 05:56

All times are GMT + 3 Hours



You cannot post new topics in this forum
You cannot reply to topics in this forum
You cannot edit your posts in this forum
You cannot delete your posts in this forum
You cannot vote in polls in this forum
You cannot attach files in this forum
You cannot download files in this forum