Today is a free download without charge Download

Кабы я была царица (1-4 серии из 4) (2012) DVB

Reply to topic
 
Author
Message

UndegraundMen ®

Longevity: 8 years 9 months

Posts: 25145

Торрент-статистика

Post 07-Mar-2013 14:35

[Quote]

Кабы я была царица (1-4 серии из 4) (2012) DVB- Оригинальное название: Кабы я была царица
Год выпуска: 2012
Страна: Россия / компания «М.Продакшн»
Жанр: драма, мелодрама-
Премьера (РФ): 4 февраля 2012 (Россия-1)
Режиссер: Сергей Алёшечкин
Актеры: Зоя Буряк, Анастасия Панина, Мария Белоненко, Кирилл Бурдихин, Тимофей Каратаев, Александр Городиский, Алексей Франдетти, Александр Наумов, Марина Николаева, Ирина Петрова, Елена Папанова, Сергей Неудачин, Алексей Литвиненко, Елена Лотова, Михаил Мартьянов, Екатерина Малахит, Владимир Лаптев, Михаил Котелов
Описание фильма:
После смерти матери опеку над младшими сестрами взяла на себя старшая Тамара. В бесконечных заботах о сестрах прошла ее молодость, замуж Тамара так и не вышла. Сестрички подросли. В годовщину смерти матери собрались они за столом и стали вспоминать, как когда-то в детстве играли они в игру, загадывая желание. Начиналась игра словами: "Кабы я была царица…". Маленькими сестры мечтали о принцах и конфетах, теперь же Тамара хочет иметь собственный дом, Вика надеется выйти замуж за олигарха, а тихая скромная Соня, так же, как в детстве, не может придумать желание. Однако судьба уже приготовила каждой сестре свой особенный сюрприз...
По одноименному роману Веры Колочковой.-Продолжительность: серия ~ 00:44
Качество видео: DVB
Видеокодек: MPEG2
Битрейт видео: ~5358 kbps avg
Размер кадра: 720x576**768х576 (4:3)
Аудиокодек: MPEG1 Layer 2
Аудио: 48.0 kHz, 2 ch ~256 Kbps avg
Субтитры: отсутствуют
.

Media Info:

Формат : MPEG-PS
Размер файла : 1,78 Гбайт
Продолжительность : 44 м.
Режим общего битрейта : Переменный
Общий поток : 5728 Кбит/сек
Библиотека кодирования : (c) 1997-2004 Womble Multimedia, Inc. / MPEG-VCR V3.14 (06/2004) / Jun 27 2004
Видео
Идентификатор : 224 (0xE0)
Формат : MPEG Video
Версия формата : Version 2
Профиль формата : [email protected]
Параметр BVOP формата : Да
Параметр матрицы формата : Выборочная
Параметр GOP формата : M=2, N=12
Продолжительность : 44 м.
Вид битрейта : Переменный
Битрейт : 5358 Кбит/сек
Максимальный битрейт : 10000 Кбит/сек
Ширина : 720 пикселей
Высота : 576 пикселей
Соотношение сторон : 4:3
Частота кадров : 25,000 кадров/сек
Стандарт вещания : PAL
Цветовое пространство : YUV
Субдискретизация насыщенности : 4:2:0
Битовая глубина : 8 бит
Тип развёртки : Чересстрочная
Порядок развёртки : Верхнее поле первое
Метод сжатия : С потерями
Бит/(Пиксели*Кадры) : 0.517
Размер потока : 1,67 Гбайт (94%)
Аудио
Идентификатор : 192 (0xC0)
Формат : MPEG Audio
Версия формата : Version 1
Профиль формата : Layer 2
Продолжительность : 44 м.
Вид битрейта : Постоянный
Битрейт : 256 Кбит/сек
Каналы : 2 канала
Частота : 48,0 КГц
Метод сжатия : С потерями
Размер потока : 81,7 Мбайт (4%)
Скриншоты:
         
         
Other forum [Profile] [PM]
Display posts from previous:    
Reply to topic

The time now is: Today 23:11

All times are GMT + 3 Hours



You cannot post new topics in this forum
You cannot reply to topics in this forum
You cannot edit your posts in this forum
You cannot delete your posts in this forum
You cannot vote in polls in this forum
You cannot attach files in this forum
You cannot download files in this forum