Today is a free download without charge Download

Второе восстание Спартака (1-10 серии из 10) (2012) DVB

Reply to topic
 
Author
Message

UndegraundMen ®

Longevity: 8 years 9 months

Posts: 25145

Торрент-статистика

Post 07-Mar-2013 12:26

[Quote]

Второе восстание Спартака (1-10 серии из 10) (2012) DVB- Оригинальное название: Второе восстание Спартака
Год выпуска: 2012
Страна: Россия / " Кинокомпания Леман"
Жанр: драма, приключения, военный-
Премьера (РФ): 9 февраля 2013 (ТРК "Украина")
Режиссер: Василий Пичул
Актеры: Константин Крюков, Татьяна Арнтгольц, Кирилл Плетнёв, Мария Звонарёва, Александр Лойе, Александра Урсуляк, Виктор Раков, Галина Польских, Сергей Варчук, Александр Горелов, Анатолий Дзиваев, Александр Семчев, Роман Радов, Нияз Гаджиев, Алексей Солончев, Денис Липатов, Дмитрий Буренков, Алексей Эйбоженко, Виталий Абдулов, Александр Орав, Антон Ескин, Александр Поляк, Денис Константинов, Андрей Межулис, Оксана Гуляева, Максим Костромыкин, Лембит Ульфсак, Максим Дромашко, Наталья Ноздрина, Владимир Качан
Описание фильма:
Спартак Котляревский был русским летчиком, бомбившим Берлин в августе 1941-го. Но вместо Звезды Героя он получил тюремный срок. И теперь у Спартака, как у его тезки, римского гладиатора, две тысячи лет назад, остался единственный выход – восстание. Котляревский организует самый крупный бунт заключенных за всю историю советского режима. Наперекор судьбе Спартак вырывается на волю, чтобы вернуться к любимой....
По роману А. Бушкова, А. Константинова и Е.Вышенкова "Второе восстание Спартака".-Продолжительность: серия ~ 00:46
Качество видео: DVB
Видеокодек: MPEG2
Битрейт видео: ~4482 kbps avg
Размер кадра: 720x576**768х576 (4:3)
Аудиокодек: MPEG1 Layer 2
Аудио: 48.0 kHz, 1 ch ~192 Kbps avg
Субтитры: украинские / вшитые

Media Info:

Формат : MPEG-PS
Размер файла : 1,54 Гбайт
Продолжительность : 46 м.
Режим общего битрейта : Переменный
Общий поток : 4769 Кбит/сек
Библиотека кодирования : (c) 1998-2010 Womble Multimedia, Inc. / MPEG Video Wizard DVD 5.0.0.114 (01/2010) / Nov 13 2010
Видео
Идентификатор : 224 (0xE0)
Формат : MPEG Video
Версия формата : Version 2
Профиль формата : [email protected]
Параметр BVOP формата : Да
Параметр матрицы формата : Выборочная
Параметр GOP формата : Variable
Продолжительность : 46 м.
Вид битрейта : Переменный
Битрейт : 4482 Кбит/сек
Максимальный битрейт : 15,0 Мбит/сек
Ширина : 720 пикселей
Высота : 576 пикселей
Соотношение сторон : 4:3
Частота кадров : 25,000 кадров/сек
Стандарт вещания : PAL
Цветовое пространство : YUV
Субдискретизация насыщенности : 4:2:0
Битовая глубина : 8 бит
Тип развёртки : Чересстрочная
Порядок развёртки : Верхнее поле первое
Метод сжатия : С потерями
Бит/(Пиксели*Кадры) : 0.432
Размер потока : 1,45 Гбайт (94%)
Аудио
Идентификатор : 192 (0xC0)
Формат : MPEG Audio
Версия формата : Version 1
Профиль формата : Layer 2
Продолжительность : 46 м.
Вид битрейта : Постоянный
Битрейт : 192 Кбит/сек
Каналы : 1 канал
Частота : 48,0 КГц
Метод сжатия : С потерями
Размер потока : 63,6 Мбайт (4%)
Скриншоты:
         
         
Other forum [Profile] [PM]
Display posts from previous:    
Reply to topic

The time now is: Today 17:49

All times are GMT + 3 Hours



You cannot post new topics in this forum
You cannot reply to topics in this forum
You cannot edit your posts in this forum
You cannot delete your posts in this forum
You cannot vote in polls in this forum
You cannot attach files in this forum
You cannot download files in this forum