Today is a free download without charge Download

Белый человек (1-4 серии из 4) (2012) DVB

Reply to topic
 
Author
Message

UndegraundMen ®

Longevity: 8 years 9 months

Posts: 25145

Торрент-статистика

Post 07-Mar-2013 10:20

[Quote]

Белый человек (1-4 серии из 4) (2012) DVB- Оригинальное название: Белый человек
Год выпуска: 2012
Страна: Россия / кинокомпания "Прорыв"
Жанр: боевик, драма-
Премьера (РФ): 24 февраля 2012 (НТВ)
Режиссер: Александр Мохов
Актеры: Сергей Плотников, Анастасия Бусыгина, Александр Лазарев (младший), Захар Хунгуреев, Анна Андрусенко, Александр Красовский, Михаил Осипов, Нина Архипова, Ванда Конисевич, Виктор Супрун, Дальвин Щербаков, Вячеслав Глушков, Николай Гаро, Андрей Тартаков, Алексей Анненков, Александр Мохов, Александра Скачкова, Сайдо Курбанов, Павел Левкин, Оксана Гуляева, Александр Курицын, Карим Махмудов
Описание фильма:
Федор Ильин - отставной офицер, служивший в горячих точках. Ильин совершенно одинок, а дом, в котором он живёт, подлежит сносу. Его соседи - гастарбайтеры: в одной из квартир живёт Закир, предприимчивый молодой парень, работающий дворником, и его сестра Лейла, бывший врач, а ныне - санитарка в больнице… Как-то раз в автосервис, в котором работает Ильин, приезжает бизнесмен - уроженец одной из республик бывшего СССР - с просьбой отремонтировать ему раритетный автомобиль. Ильин, прошедший Афганистан и побывавший там в плену, теперь не очень благосклонно относится к выходцам с Востока. Поэтому он грубо отказывает бизнесмену, после чего Федора увольняют с работы. Единственная ценность, которая у него осталась - это старый раритетный автомобиль, подаренный его деду маршалом Рокоссовским. Ильин каждый день бережно возится со своей машиной и очень дорожит ею. Но однажды его сосед Закир, решив легко заработать, проникает в гараж и ворует новые колеса, купленные Ильиным. Он относит колеса в шиномонтаж, своему приятелю Шубину, который, в свою очередь, дарит их своему старому знакомому Курту - лидеру местной националистической группировки, замешанной в организации погромов. Закир вновь приходит в гараж Ильина за оставшимися колесами, где его ловит хозяин-Продолжительность: серия ~ 00:41
Качество видео: DVB
Видеокодек: MPEG2
Битрейт видео: ~5142 kbps avg
Размер кадра: 720x576**768х576 (4:3)
Аудиокодек: MPEG1 Layer 2
Аудио: 48.0 kHz, 2 ch ~192 Kbps avg
Субтитры: отсутствуют
.

Media Info:

Формат : MPEG-PS
Размер файла : 1,59 Гбайт
Продолжительность : 41 м.
Режим общего битрейта : Переменный
Общий поток : 5442 Кбит/сек
Библиотека кодирования : (c) 1998-2011 Womble Multimedia, Inc. / MPEG Video Wizard DVD 5.0.1.100 (03/2011) / Dec 19 2011
Видео
Идентификатор : 224 (0xE0)
Формат : MPEG Video
Версия формата : Version 2
Профиль формата : [email protected]
Параметр BVOP формата : Да
Параметр матрицы формата : Выборочная
Параметр GOP формата : Variable
Продолжительность : 41 м.
Вид битрейта : Переменный
Битрейт : 5142 Кбит/сек
Максимальный битрейт : 15,0 Мбит/сек
Ширина : 720 пикселей
Высота : 576 пикселей
Соотношение сторон : 4:3
Частота кадров : 25,000 кадров/сек
Стандарт вещания : PAL
Цветовое пространство : YUV
Субдискретизация насыщенности : 4:2:0
Битовая глубина : 8 бит
Тип развёртки : Чересстрочная
Порядок развёртки : Верхнее поле первое
Метод сжатия : С потерями
Бит/(Пиксели*Кадры) : 0.496
Размер потока : 1,50 Гбайт (94%)
Аудио
Идентификатор : 192 (0xC0)
Формат : MPEG Audio
Версия формата : Version 1
Профиль формата : Layer 2
Продолжительность : 41 м.
Вид битрейта : Постоянный
Битрейт : 192 Кбит/сек
Каналы : 2 канала
Частота : 48,0 КГц
Метод сжатия : С потерями
Задержка видео : -40 мс.
Размер потока : 57,5 Мбайт (4%)
Скриншоты:
         
         
Other forum [Profile] [PM]
Display posts from previous:    
Reply to topic

The time now is: Today 05:03

All times are GMT + 3 Hours



You cannot post new topics in this forum
You cannot reply to topics in this forum
You cannot edit your posts in this forum
You cannot delete your posts in this forum
You cannot vote in polls in this forum
You cannot attach files in this forum
You cannot download files in this forum