Today is a free download without charge Download

Я тебя никому не отдам / Серии: 1-4 из 4 (Владимир Янощук) [2010, Мелодрама, HDTVRip 720p]

Reply to topic
 
Author
Message

Omen ®

Longevity: 9 years 1 month

Posts: 181086

Торрент-статистика

Post 07-Mar-2013 01:02

[Quote]

Я тебя никому не отдам
Год выпуска: 2010
Производство: ООО "Стар Медиа Про"
Жанр: Мелодрама
Продолжительность: ~00:45:00
Субтитры: нет
Режиссёр: Владимир Янощук
В ролях: Марина Александрова, Агния Кузнецова, Анатолий Пашинин, Евгений Пронин, Михаил Жигалов, Ольга Когут, Раиса Рязанова, Ада Роговцева, Анна Уколова, Игорь Неведров, Майя Кузьмишина
Описание: Светлана была перспективной пианисткой и счастливой женой. Но в результате несчастного случая у нее оказались серьезно повреждены кисти рук, и с работой пришлось проститься. Выйти из депрессии ей должен помочь муж Александр — водитель автобуса.
Но у него самого все непросто: ребенка от него ждет не только жена, но и кондуктор Рита. Расстроенный мужчина теряет бдительность на дороге, сбивает женщину и попадает в тюрьму. Светлана при родах теряет малыша. Спустя некоторое время она находит под дверью месячного подкидыша — девочку. Это дочь Риты и Александра.
Почувствовав, что младенец — путь к ее спасению, Светлана едет с ним в глухое село и пять лет живет спокойно: работает на почте и дает уроки музыки бывшему воину-афганцу. Ученик влюбляется в учительницу, и в это время Александр, отбыв наказание, приезжает в село…
Отсидев положенный срок, возвращается из тюрьмы муж Светланы, он сразу заявляет забрать девочку у Светланы, но Рита, ударом ножа в сердце Александра, ставит точку, ну а дальше смотрите сами друзья….

Качество: HDTVRip 720p
Формат: MKV
Видео кодек: H.264
Аудио кодек: MPEG Audio
Видео: x264, 1280 х 720 (16:9), 25,000 кадр/сек, ~ 3473 Кбит/сек
Аудио: MPEG Audio 48000Hz stereo 192 Кбит/сек
Сторонней рекламы нет!

MediaInfo

ОбщееУникальный идентификатор : 232818927025562835637264272073810011442 (0xAF274B586A5FB7459BC442C98D346532)Полное имя : G:\ФИЛЬМЫ\Я тебя никому не отдам HDTVRip 720p\Я тебя никому не отдам 01_серия_HDTVRip 720 p_by_Серый1779.mkvФормат : MatroskaВерсия формата : Version 2Размер файла : 1,14 ГбайтПродолжительность : 44 м.Общий поток : 3668 Кбит/секДата кодирования : UTC 2013-03-05 16:12:34Программа кодирования : mkvmerge v5.6.0 ('Kenya Kane') built on Jun 29 2012 15:01:44Библиотека кодирования : libebml v1.2.3 + libmatroska v1.3.0
ВидеоИдентификатор : 1Формат : AVCФормат/Информация : Advanced Video CodecПрофиль формата : [email protected]Параметр CABAC формата : ДаПараметр ReFrames формата : 9 кадровИдентификатор кодека : V_MPEG4/ISO/AVCПродолжительность : 44 м.Битрейт : 3403 Кбит/секШирина : 1280 пикселейВысота : 720 пикселейСоотношение сторон : 16:9Режим частоты кадров : ПостоянныйЧастота кадров : 25,000 кадров/секЦветовое пространство : YUVСубдискретизация насыщенности : 4:2:0Битовая глубина : 8 битТип развёртки : ПрогрессивнаяБит/(Пиксели*Кадры) : 0.148Размер потока : 1,06 Гбайт (93%)Библиотека кодирования : x264 core 125 r2200 999b753Настройки программы : cabac=1 / ref=9 / deblock=1:-2:-2 / analyse=0x3:0x133 / me=umh / subme=9 / psy=1 / psy_rd=1.10:0.15 / mixed_ref=1 / me_range=32 / chroma_me=1 / trellis=2 / 8x8dct=1 / cqm=0 / deadzone=21,11 / fast_pskip=0 / chroma_qp_offset=-3 / threads=3 / lookahead_threads=1 / sliced_threads=0 / nr=0 / decimate=1 / interlaced=0 / bluray_compat=0 / constrained_intra=0 / bframes=9 / b_pyramid=2 / b_adapt=2 / b_bias=0 / direct=1 / weightb=1 / open_gop=0 / weightp=2 / keyint=250 / keyint_min=25 / scenecut=40 / intra_refresh=0 / rc=crf / mbtree=0 / crf=20.0 / qcomp=0.60 / qpmin=0 / qpmax=69 / qpstep=4 / ip_ratio=1.40 / pb_ratio=1.30 / aq=2:0.80Default : ДаForced : НетОсновные цвета : BT.601 PALХарактеристики трансфера : BT.470 System B, BT.470 System GКоэффициенты матрицы : BT.601
АудиоИдентификатор : 2Формат : MPEG AudioВерсия формата : Version 1Профиль формата : Layer 2Идентификатор кодека : A_MPEG/L2Идентификатор кодека/Подсказка : MP2Продолжительность : 44 м.Вид битрейта : ПостоянныйБитрейт : 192 Кбит/секКаналы : 2 каналаЧастота : 48,0 КГцМетод сжатия : С потерямиРазмер потока : 61,2 Мбайт (5%)Default : ДаForced : Нет

h264 log

x264 [info]: frame I:417 Avg QP:18.80 size: 95562x264 [info]: frame P:17220 Avg QP:20.32 size: 35162x264 [info]: frame B:49211 Avg QP:22.55 size: 10481x264 [info]: consecutive B-frames: 1.9% 2.1% 6.3% 74.0% 7.6% 7.1% 0.5% 0.3% 0.1% 0.2%x264 [info]: mb I I16..4: 8.2% 76.0% 15.8%x264 [info]: mb P I16..4: 1.4% 10.1% 1.6% P16..4: 49.2% 18.6% 13.9% 0.6% 0.2% skip: 4.3%x264 [info]: mb B I16..4: 0.1% 1.0% 0.2% B16..8: 39.4% 7.7% 2.0% direct: 5.8% skip:43.8% L0:36.4% L1:51.9% BI:11.7%x264 [info]: 8x8 transform intra:76.6% inter:60.2%x264 [info]: coded y,uvDC,uvAC intra: 85.2% 80.9% 41.8% inter: 22.1% 22.3% 0.8%x264 [info]: i16 v,h,dc,p: 31% 12% 7% 50%x264 [info]: i8 v,h,dc,ddl,ddr,vr,hd,vl,hu: 15% 11% 4% 8% 12% 14% 12% 12% 12%x264 [info]: i4 v,h,dc,ddl,ddr,vr,hd,vl,hu: 16% 11% 3% 8% 13% 14% 13% 11% 12%x264 [info]: i8c dc,h,v,p: 31% 23% 26% 20%x264 [info]: Weighted P-Frames: Y:4.7% UV:2.9%x264 [info]: ref P L0: 54.4% 12.3% 17.9% 4.2% 3.5% 2.4% 2.3% 1.3% 1.5% 0.1% 0.0%x264 [info]: ref B L0: 88.4% 7.5% 1.8% 0.9% 0.6% 0.5% 0.3% 0.2%x264 [info]: ref B L1: 97.0% 3.0%x264 [info]: kb/s:3473.89
x264 [total]: encoded 66848 frames, 2.39 fps, 3473.89 kb/s
Отдельное спасибо dean10 за предоставление исходника.

Внимание ! Раздача ведётся путём добавления новых серий

Внимание! Раздача ведётся путём добавления новых серий; при каждом добавлении создётся новый торрент. Чтобы начать докачку новой серии, пользователям необходимо сделать следующее:
(1) остановить скачивание,
(2) удалить старый торрент у себя из клиента (старые серии удалять не надо),
(3) скачать новый торрент и запустить его у себя в клиенте вместо старого, при этом указать клиенту путь в старую папку куда и должно происходить скачивание новых серий.
Ваш клиент при этом должен произвести хеширование (проверку) старой папки (если не производит сам - помогите ему сделать это), и будет докачивать только те серии которых у вас ещё нет. Старые серии при этом не удаляются, а продолжают раздаваться!
Eсли вы уже удалили старые серии, то предотвратить повторную закачку старых серий можно, отжав галочку в соответсвующих местах при запуске нового торрента. По возможности, желательно не удалять старые серии как можно дольше чтобы релизёр не столько продолжал раздавать старые серии, а смог сконцентрироваться на новых.
ВНИМАНИЕ! ТОРРЕНТ ПЕРЕЗАЛИТ! ДОБАВЛЕНА 4-ая СЕРИИ!

Скриншоты

Other forum [Profile] [PM]
Display posts from previous:    
Reply to topic

The time now is: Today 06:19

All times are GMT + 3 Hours



You cannot post new topics in this forum
You cannot reply to topics in this forum
You cannot edit your posts in this forum
You cannot delete your posts in this forum
You cannot vote in polls in this forum
You cannot attach files in this forum
You cannot download files in this forum