Today is a free download without charge Download

Жизнь Пи / Life of Pi (Энг Ли / Ang Lee) [2012, США, Тайвань, драма, приключения, BDRip 720p] Dub + VO (Замез) + Original Eng + Sub Rus Eng

Reply to topic
 
Author
Message

Omen ®

Longevity: 8 years 5 months

Posts: 181087

Торрент-статистика

Post 06-Mar-2013 16:53

[Quote]

Жизнь Пи / Life of Pi
«Поверь в невозможное»
- Страна: США, Тайвань
Студия: Fox 2000 Pictures, Haishang Films, Rhythm & Hues
Жанр: драма, приключения
Год выпуска: 2012
Продолжительность: 02:06:59-Перевод:
1. Профессиональный (дублированный)
2. Одноголосый закадровый :: В. Замез
Оригинальная аудиодорожка: английский
Cубтитры: русские(2), английские(2)
Навигация по главам: есть-Режиссер: Энг Ли / Ang Lee
В ролях: Сурадж Шарма, Ирфан Кхан, Рейф Сполл, Табу, Адиль Хуссэйн, Жерар Депардье, Аюш Тандон, Гаутам Белур, Аян Кхан, Мохд Аббас Халили, Вибиш Шивакумар, Джеймс Саито
Описание: Главный герой фильма оказывается на шлюпке посреди океана в компании неожиданного попутчика — грозного бенгальского тигра.-Доп. информация:
Возрастные ограничения: 6+
Рейтинг MPAA: PG (рекомендуется присутствие родителей)-IMDB: 8.2 (131 315) // Kinopoisk: 8.236 (34 984) // Sample-Исходник: BD Remux (1080p, 23.976 fps, AVC, ~24809 kbps)
Тип релиза: BDRip 720p
Контейнер: MKV
Видео: 1280x692 (1.85:1), 23.976 fps, ~5750 kbps, 0.271 bpp
Аудио 1: RUS AC3 5.1, 48 kHz, 448 kbps :: Дублированный
Аудио 2: RUS AC3 5.1, 48 kHz, 384 kbps :: Одноголосый (Замез)
Аудио 3: ENG AC3 5.1, 48 kHz, 640 Kbps
Субтитры 1-2: русские (форсированные, полные)
Субтитры 3-4: английские (форсированные, полные)
Формат субтитров: softsub (SRT)

x264

x264 [info]: 1280x692p 1:1 @ 24000/1001 fps (cfr)
x264 [info]: using SAR=1/1
x264 [info]: using cpu capabilities: MMX2 SSE2Fast SSSE3 SSE4.2 AVX
x264 [info]: profile High, level 4.1
x264 [info]: cabac=1 ref=8 deblock=1:-2:-2 analyse=0x3:0x113 me=umh subme=10 psy=1 fade_compensate=0.00 psy_rd=0.90:0.05 mixed_ref=1 me_range=32 chroma_me=1 trellis=2 8x8dct=1 cqm=0 deadzone=21,11 fast_pskip=0 chroma_qp_offset=-3 threads=6 lookahead_threads=1 sliced_threads=0 nr=0 decimate=0 interlaced=0 bluray_compat=0 constrained_intra=0 bframes=9 b_pyramid=2 b_adapt=2 b_bias=0 direct=3 weightb=1 open_gop=0 weightp=2 keyint=250 keyint_min=23 scenecut=40 intra_refresh=0 rc_lookahead=0 rc=2pass mbtree=0 bitrate=5750 ratetol=1.0 qcomp=0.70 qpmin=0 qpmax=69 qpstep=4 cplxblur=20.0 qblur=0.5 vbv_maxrate=50000 vbv_bufsize=62500 nal_hrd=none ip_ratio=1.40 pb_ratio=1.30 aq=1:1.00
x264 [info]: frame I:1051 Avg QP:14.38 size:138203
x264 [info]: frame P:42550 Avg QP:16.91 size: 55070
x264 [info]: frame B:139087 Avg QP:18.49 size: 21484
x264 [info]: consecutive B-frames: 2.4% 2.5% 10.2% 30.7% 14.3% 29.9% 4.0% 2.6% 2.4% 1.1%
x264 [info]: mb I I16..4: 11.5% 71.5% 17.1%
x264 [info]: mb P I16..4: 1.5% 27.0% 2.7% P16..4: 29.5% 21.4% 11.8% 0.0% 0.0% skip: 6.0%
x264 [info]: mb B I16..4: 0.2% 3.4% 0.7% B16..8: 32.8% 15.6% 4.6% direct: 9.6% skip:33.1% L0:44.1% L1:39.3% BI:16.5%
x264 [info]: 8x8 transform intra:83.4% inter:63.4%
x264 [info]: direct mvs spatial:98.7% temporal:1.3%
x264 [info]: coded y,uvDC,uvAC intra: 90.6% 82.3% 58.5% inter: 32.7% 36.1% 14.2%
x264 [info]: i16 v,h,dc,p: 32% 14% 10% 43%
x264 [info]: i8 v,h,dc,ddl,ddr,vr,hd,vl,hu: 9% 14% 8% 8% 12% 10% 14% 10% 15%
x264 [info]: i4 v,h,dc,ddl,ddr,vr,hd,vl,hu: 22% 13% 4% 6% 12% 9% 14% 7% 13%
x264 [info]: i8c dc,h,v,p: 46% 28% 16% 10%
x264 [info]: Weighted P-Frames: Y:16.2% UV:9.9%
x264 [info]: ref P L0: 48.7% 9.6% 15.8% 8.2% 6.1% 4.7% 3.8% 2.5% 0.5% 0.1%
x264 [info]: ref B L0: 70.2% 14.4% 6.8% 3.9% 2.7% 1.4% 0.6%
x264 [info]: ref B L1: 92.7% 7.3%
x264 [info]: kb/s:5749.97

MediaInfo

General
Unique ID : 184297084025114327239316585769080277467 (0x8AA653C889CEE164804B114861B549DB)
Complete name : E:\Life.of.Pi.2012.BDRip.720p.mkv
Format : Matroska
Format version : Version 4 / Version 2
File size : 6.41 GiB
Duration : 2h 6mn
Overall bit rate : 7 225 Kbps
Movie name : Life of Pi (2012)
Encoded date : UTC 2013-03-06 07:53:00
Writing application : mkvmerge v6.1.0 ('Old Devil') built on Mar 2 2013 14:32:37
Writing library : libebml v1.3.0 + libmatroska v1.4.0
Video
ID : 1
Format : AVC
Format/Info : Advanced Video Codec
Format profile : [email protected]
Format settings, CABAC : Yes
Format settings, ReFrames : 8 frames
Codec ID : V_MPEG4/ISO/AVC
Duration : 2h 6mn
Bit rate : 5 750 Kbps
Width : 1 280 pixels
Height : 692 pixels
Display aspect ratio : 1.85:1
Frame rate mode : Constant
Frame rate : 23.976 fps
Color space : YUV
Chroma subsampling : 4:2:0
Bit depth : 8 bits
Scan type : Progressive
Bits/(Pixel*Frame) : 0.271
Stream size : 4.98 GiB (78%)
Title : Life of Pi (2012)
Writing library : x264 core 130 r2273kMod b3065e6
Encoding settings : cabac=1 / ref=8 / deblock=1:-2:-2 / analyse=0x3:0x113 / me=umh / subme=10 / psy=1 / fade_compensate=0.00 / psy_rd=0.90:0.05 / mixed_ref=1 / me_range=32 / chroma_me=1 / trellis=2 / 8x8dct=1 / cqm=0 / deadzone=21,11 / fast_pskip=0 / chroma_qp_offset=-3 / threads=6 / lookahead_threads=1 / sliced_threads=0 / nr=0 / decimate=0 / interlaced=0 / bluray_compat=0 / constrained_intra=0 / bframes=9 / b_pyramid=2 / b_adapt=2 / b_bias=0 / direct=3 / weightb=1 / open_gop=0 / weightp=2 / keyint=250 / keyint_min=23 / scenecut=40 / intra_refresh=0 / rc_lookahead=0 / rc=2pass / mbtree=0 / bitrate=5750 / ratetol=1.0 / qcomp=0.70 / qpmin=0 / qpmax=69 / qpstep=4 / cplxblur=20.0 / qblur=0.5 / vbv_maxrate=50000 / vbv_bufsize=62500 / nal_hrd=none / ip_ratio=1.40 / pb_ratio=1.30 / aq=1:1.00
Language : English
Default : Yes
Forced : No
Matrix coefficients : BT.709
Audio #1
ID : 2
Format : AC-3
Format/Info : Audio Coding 3
Mode extension : CM (complete main)
Format settings, Endianness : Big
Codec ID : A_AC3
Duration : 2h 6mn
Bit rate mode : Constant
Bit rate : 448 Kbps
Channel(s) : 6 channels
Channel positions : Front: L C R, Side: L R, LFE
Sampling rate : 48.0 KHz
Bit depth : 16 bits
Compression mode : Lossy
Stream size : 407 MiB (6%)
Title : Dub / DD 5.1, 48kHz, 448kbps
Language : Russian
Default : Yes
Forced : No
Audio #2
ID : 3
Format : AC-3
Format/Info : Audio Coding 3
Mode extension : CM (complete main)
Format settings, Endianness : Big
Codec ID : A_AC3
Duration : 2h 6mn
Bit rate mode : Constant
Bit rate : 384 Kbps
Channel(s) : 6 channels
Channel positions : Front: L C R, Side: L R, LFE
Sampling rate : 48.0 KHz
Bit depth : 16 bits
Compression mode : Lossy
Stream size : 349 MiB (5%)
Title : VO (Zamez) / DD 5.1, 48kHz, 384kbps
Language : Russian
Default : No
Forced : No
Audio #3
ID : 4
Format : AC-3
Format/Info : Audio Coding 3
Mode extension : CM (complete main)
Format settings, Endianness : Big
Codec ID : A_AC3
Duration : 2h 6mn
Bit rate mode : Constant
Bit rate : 640 Kbps
Channel(s) : 6 channels
Channel positions : Front: L C R, Side: L R, LFE
Sampling rate : 48.0 KHz
Bit depth : 16 bits
Compression mode : Lossy
Stream size : 581 MiB (9%)
Title : Original / DD 5.1, 48kHz, 640kbps
Language : English
Default : No
Forced : No
Text #1
ID : 5
Format : UTF-8
Codec ID : S_TEXT/UTF8
Codec ID/Info : UTF-8 Plain Text
Title : Forced
Language : Russian
Default : Yes
Forced : No
Text #2
ID : 6
Format : UTF-8
Codec ID : S_TEXT/UTF8
Codec ID/Info : UTF-8 Plain Text
Title : Full
Language : Russian
Default : No
Forced : No
Text #3
ID : 7
Format : UTF-8
Codec ID : S_TEXT/UTF8
Codec ID/Info : UTF-8 Plain Text
Title : Forced
Language : English
Default : No
Forced : No
Text #4
ID : 8
Format : UTF-8
Codec ID : S_TEXT/UTF8
Codec ID/Info : UTF-8 Plain Text
Title : Full
Language : English
Default : No
Forced : No
Menu
00:00:00.000 : en:Chapter 01
00:03:58.821 : en:Chapter 02
00:11:13.172 : en:Chapter 03
00:15:24.924 : en:Chapter 04
00:21:29.621 : en:Chapter 05
00:25:44.543 : en:Chapter 06
00:29:46.826 : en:Chapter 07
00:31:31.014 : en:Chapter 08
00:35:34.298 : en:Chapter 09
00:45:24.346 : en:Chapter 10
00:50:21.893 : en:Chapter 11
00:54:13.333 : en:Chapter 12
00:57:18.351 : en:Chapter 13
01:00:07.395 : en:Chapter 14
01:04:12.056 : en:Chapter 15
01:09:32.084 : en:Chapter 16
01:11:48.053 : en:Chapter 17
01:13:34.284 : en:Chapter 18
01:16:47.561 : en:Chapter 19
01:21:31.177 : en:Chapter 20
01:23:10.026 : en:Chapter 21
01:26:30.852 : en:Chapter 22
01:31:21.434 : en:Chapter 23
01:34:13.856 : en:Chapter 24
01:43:42.674 : en:Chapter 25
01:47:38.660 : en:Chapter 26
01:55:20.079 : en:Chapter 27
01:59:16.274 : en:Chapter 28

Скриншоты


Сравнение

Source vs. BDRip

Other forum [Profile] [PM]
Display posts from previous:    
Reply to topic

The time now is: Today 01:56

All times are GMT + 3 Hours



You cannot post new topics in this forum
You cannot reply to topics in this forum
You cannot edit your posts in this forum
You cannot delete your posts in this forum
You cannot vote in polls in this forum
You cannot attach files in this forum
You cannot download files in this forum