Today is a free download without charge Download

Анна Каренина / Серии: 01-04 из 05 (Сергей Соловьев) [2009, Драма, экранизация, HDTV 1080i]

Reply to topic
 
Author
Message

UndegraundMen ®

Longevity: 8 years 9 months

Posts: 25145

Торрент-статистика

Post 06-Mar-2013 11:02

[Quote]

Анна Каренина (2009) HDTV [01-04 из 05]- Русское название: Анна Каренина
Год выпуска: 2009
Жанр: Драма, экранизация

Режиссер: Сергей Соловьев
Актеры: Татьяна Друбич (Анна Каренина), Ярослав Бойко (Вронский), Олег Янковский (Алексей Каренин), Сергей Гармаш (Левин), Мария Аниканова (Кити), Александр Абдулов (Стива Облонский), Елена Дробышева (Долли), Эдуард Марцевич, Екатерина Васильева (мать Вронского), Людмила Савельева (княгиня Щербацкая), Евгения Крюкова (Бетси Тверская), Людмила Максакова (графиня Лидия Ивановна), Екатерина Волкова и др.
Описание фильма:
Режиссер фильма Сергей Соловьев вынашивал замысел картины более 10 лет, он же написал сценарий. По его словам "создание сценария было тяжелейшей кропотливой работой, проще было написать новый сценарий любой сложности, ведь испытываешь колоссальную ответственность по отношению к тексту Толстого. Нужно было переделать это эпическое произведение в драму, а когда это делаешь, линии сталкиваются между собой по-иному, в других временных отношениях, превращаясь из описательных – в драматические. Я старался сделать это так, чтобы ни в коем случае не насиловать живую органичную плоть романа, старался быть бережным, осторожным, и проводил эту операцию превращения "эпоса в драму" с максимальной аккуратностью". Над экранизацией великого романа Толстого работала сильнейшая команда. Художниками-постановщиками Соловьев пригласил Сергея Иванова и Александра Борисова, с которым успешно работает вот уже 40 лет. Оператор - Сергей Астахов. Съемкам предшествовала тщательная подготовительная работа с привлечением консультантов-историков и литературоведов, ибо одну из главных задач создатели фильма видели в максимально достоверном отображении эпохи и приближению зрителя к миру романа. Это касается не только костюмов и съемочных интерьеров. Например, для знаменитой сцены на катке, специально были изготовлены коньки по старинным эскизам и кресла на полозьях. А для одного из ключевых эпизодов фильма – скачек – в Петербурге специально построили ипподром, воссозданный по эскизам бывших царских конюшен. Натурные съемки проходили в Москве, в Архангельском (музей-усадьба графа Юсупова), в Ясной поляне (музей-усадьба Л.Н.Толстого), Санкт-Петербурге, в Венеции. "Анна Каренина" - Последний фильм с участием Александра Абдулова, одна из последних киноработ Олега Янковского.
Продолжительность: ~ 00:50:00
Качество видео: HDTV 1080i
Видеокодек: AVC
Битрейт видео: ~7 838 Kb/s
Размер кадра: 1920x1080
Аудиокодек: AC3 2.0
Аудио 1: MPEG Audio 48000Hz stereo 192 Кбит/сек
Аудио 2: AC3 384 Kbps, 2 channels

MediaInfo

General
ID : 1 (0x1)
Complete name : G:\Сериалы\Анна Каренина\01 серия.ts
Format : MPEG-TS
File size : 3.13 GiB
Duration : 50mn 21s
Overall bit rate mode : Variable
Overall bit rate : 8 895 Kbps
Video
ID : 2931 (0xB73)
Menu ID : 1 (0x1)
Format : AVC
Format/Info : Advanced Video Codec
Format profile : [url=mailto:[email protected]][email protected][/url]
Format settings, CABAC : Yes
Format settings, ReFrames : 4 frames
Codec ID : 27
Duration : 50mn 21s
Bit rate : 7 873 Kbps
Width : 1 920 pixels
Height : 1 080 pixels
Display aspect ratio : 16:9
Frame rate : 25.000 fps
Color space : YUV
Chroma subsampling : 4:2:0
Bit depth : 8 bits
Scan type : MBAFF
Bits/(Pixel*Frame) : 0.152
Stream size : 2.77 GiB (89%)
Audio #1
ID : 2932 (0xB74)
Menu ID : 1 (0x1)
Format : MPEG Audio
Format version : Version 1
Format profile : Layer 2
Codec ID : 3
Duration : 50mn 21s
Bit rate mode : Constant
Bit rate : 192 Kbps
Channel(s) : 2 channels
Sampling rate : 48.0 KHz
Compression mode : Lossy
Stream size : 69.1 MiB (2%)
Language : Russian
Audio #2
ID : 2933 (0xB75)
Menu ID : 1 (0x1)
Format : AC-3
Format/Info : Audio Coding 3
Mode extension : CM (complete main)
Format settings, Endianness : Big
Codec ID : 129
Duration : 50mn 21s
Bit rate mode : Constant
Bit rate : 384 Kbps
Channel(s) : 2 channels
Channel positions : Front: L R
Sampling rate : 48.0 KHz
Bit depth : 16 bits
Compression mode : Lossy
Stream size : 138 MiB (4%)
Language : Russian
Text
ID : 2934 (0xB76)-888
Menu ID : 1 (0x1)
Format : Teletext Subtitle
Language : Russian
Menu
ID : 2930 (0xB72)
Menu ID : 1 (0x1)
Duration : 50mn 21s
List : 2931 (0xB73) (AVC) / 2932 (0xB74) (MPEG Audio, Russian) / 2933 (0xB75) (AC-3, Russian) / 2934 (0xB76) ()
Language : / Russian / Russian
Скриншоты:


Время раздачи: будни 8:30 до 23:30, выходные 10:00 до 24:00
Other forum [Profile] [PM]
Display posts from previous:    
Reply to topic

The time now is: Today 05:07

All times are GMT + 3 Hours



You cannot post new topics in this forum
You cannot reply to topics in this forum
You cannot edit your posts in this forum
You cannot delete your posts in this forum
You cannot vote in polls in this forum
You cannot attach files in this forum
You cannot download files in this forum