Today is a free download without charge Download

Сказки Засыпайки. События в трамвае (Хейки Кримм) [1977, кукольный мультфильм, DVB]

Reply to topic
 
Author
Message

Omen ®

Longevity: 7 years 11 months

Posts: 181087

Торрент-статистика

Post 05-Mar-2013 20:39

[Quote]

Сказки Засыпайки. События в трамвае
Жанр: кукольный мультфильм
Год выпуска: 1977
Продолжительность: 00:04:55
Режиссёр: Хейки Кримм
Описание: Мультипликационный фильм режиссера Хейки Кримма из серии «Сказки Засыпайки». О веселых приключениях куклы - невидимки по имени Засыпайка.
Доп. информация:

Релиз спутникового канала: "Карусель"
Качество видео: DVB
Формат видео: MPEG-PS
Видео: MPEG2 Video, 720x576, 25 fps, 3300 kbps
Аудио: MPEG Audio, 2 сh, 48 kHz, 192 kbps

MediaInfo

General
Complete name : O:\Сказки Засыпайки. События в трамвае. (1977)_DVB by SLuMeP.mpg
Format : MPEG-PS
File size : 124 MiB
Duration : 4mn 55s
Overall bit rate : 3 533 Kbps
Video
ID : 224 (0xE0)
Format : MPEG Video
Format version : Version 2
Format profile : [email protected]
Format settings, BVOP : Yes
Format settings, Matrix : Default
Format settings, GOP : M=3, N=12
Duration : 4mn 55s
Bit rate mode : Variable
Bit rate : 3 270 Kbps
Nominal bit rate : 5 000 Kbps
Width : 720 pixels
Height : 576 pixels
Display aspect ratio : 4:3
Frame rate : 25.000 fps
Standard : PAL
Color space : YUV
Chroma subsampling : 4:2:0
Bit depth : 8 bits
Scan type : Interlaced
Scan order : Top Field First
Bits/(Pixel*Frame) : 0.315
Stream size : 115 MiB (93%)
Audio
ID : 192 (0xC0)
Format : MPEG Audio
Format version : Version 1
Format profile : Layer 2
Duration : 4mn 55s
Bit rate mode : Constant
Bit rate : 192 Kbps
Channel(s) : 2 channels
Sampling rate : 48.0 KHz
Stream size : 6.76 MiB (5%)

Скриншоты

Other forum [Profile] [PM]
Display posts from previous:    
Reply to topic

The time now is: Today 19:14

All times are GMT + 3 Hours



You cannot post new topics in this forum
You cannot reply to topics in this forum
You cannot edit your posts in this forum
You cannot delete your posts in this forum
You cannot vote in polls in this forum
You cannot attach files in this forum
You cannot download files in this forum