Today is a free download without charge Download

Discovery: Машины высшего класса (1 серия из ?)/ Discovery: Dirty Great Machines (2013) WEB-DLRip

Reply to topic
 
Author
Message

UndegraundMen ®

Longevity: 7 years 7 months

Posts: 25145

Торрент-статистика

Post 05-Mar-2013 17:00

[Quote]

Discovery: Машины высшего класса (1 серия из ?)/ Discovery: Dirty Great Machines (2013) WEB-DLRip- Русское название: Discovery: Машины высшего класса
Оригинальное название: Discovery: Dirty Great Machines
Режиссер / Телекомпания: Discovery Channel
Год выпуска: 2013
Жанр: Документальный
Описание:
1 серия
Мощнейшие машины на планете. Большие, грозные, непобедимые. Они прорываются сквозь землю и в современном мире без них не обойтись. В этой серии мы расскажем о машинах копающих землю у нас под ногами. В Лондоне огромная буровая машина прокладывает глубочайший туннель в мире. Многотонный монстр роет его в нескольких метрах под небоскребами. Чем медленнее они продвигаются, тем больше захватывают. Пора садится за руль машин высшего класса.
Продолжительность: 00:43:37
Перевод: Одноголосый закадровый, профессиональный
Видеокодек: Xvid
Битрейт видео: ~1293 Кбит/сек
Размер кадра: 800x480
Качество видео: WEB-DLRip
Аудиокодек: MP3, 2 канала
Битрейт аудио: 192 Кбит/сек
Скриншоты:
       
       

MediaInfo

Общее
Полное имя : H:\ДОКУМЕНТАЛКИ\Машины высшего класса\Машины высшего класса - 1 серия.avi
Формат : AVI
Формат/Информация : Audio Video Interleave
Размер файла : 469 Мбайт
Продолжительность : 43 м.
Общий поток : 1498 Кбит/сек
Программа кодирования : Lavf52.94.0
Видео
Идентификатор : 0
Формат : MPEG-4 Visual
Профиль формата : [email protected]
Параметр BVOP формата : Нет
Параметр QPel формата : Нет
Параметр GMC формата : Без точки перехода
Параметр матрицы формата : Default (H.263)
Идентификатор кодека : XVID
Идентификатор кодека/Подсказка : XviD
Продолжительность : 43 м.
Битрейт : 1293 Кбит/сек
Ширина : 800 пикселей
Высота : 480 пикселей
Соотношение сторон : 1,667
Частота кадров : 25,000 кадров/сек
Цветовое пространство : YUV
Субдискретизация насыщенности : 4:2:0
Битовая глубина : 8 бит
Тип развёртки : Прогрессивная
Метод сжатия : С потерями
Бит/(Пиксели*Кадры) : 0.135
Размер потока : 405 Мбайт (86%)
Библиотека кодирования : XviD 1.2.1 (UTC 2008-12-04)
Аудио
Идентификатор : 1
Формат : MPEG Audio
Версия формата : Version 1
Профиль формата : Layer 3
Режим : Joint stereo
Расширение режима : MS Stereo
Идентификатор кодека : 55
Идентификатор кодека/Подсказка : MP3
Продолжительность : 43 м.
Вид битрейта : Постоянный
Битрейт : 192 Кбит/сек
Каналы : 2 канала
Частота : 48,0 КГц
Метод сжатия : С потерями
Размер потока : 60,1 Мбайт (13%)
Выравнивание : Соединение по промежуткам
Продолжительность промежутка : 24 мс. (0,60 видеокадр)
Библиотека кодирования : LAME3.98.4ЄЄЄЄЄЄЄЄЄЄ
Время раздачи: с 9:00 до 21:00 по МСК
Other forum [Profile] [PM]
Display posts from previous:    
Reply to topic

The time now is: Today 16:16

All times are GMT + 3 Hours



You cannot post new topics in this forum
You cannot reply to topics in this forum
You cannot edit your posts in this forum
You cannot delete your posts in this forum
You cannot vote in polls in this forum
You cannot attach files in this forum
You cannot download files in this forum