Today is a free download without charge Download

Анна Каренина / Серии: 1-2 из 5 (Сергей Соловьев) [2009, Драма, экранизация, HDTVRip 400p]

Reply to topic
 
Author
Message

Omen ®

Longevity: 9 years 1 month

Posts: 181086

Торрент-статистика

Post 05-Mar-2013 16:38

[Quote]

Анна Каренина"Легендарная история любви" Год выпуска: 2009
Производство: Россия, "Линия Кино и ЮГРА Фильм"
Жанр: Драма, экранизация
Режиссёр: Сергей Соловьев
Продолжительность: 2 х 00:50:00
В ролях: Татьяна Друбич (Анна Каренина), Ярослав Бойко (Вронский), Олег Янковский (Алексей Каренин), Сергей Гармаш (Левин), Мария Аниканова (Кити), Александр Абдулов (Стива Облонский), Елена Дробышева (Долли), Эдуард Марцевич, Екатерина Васильева (мать Вронского), Людмила Савельева (княгиня Щербацкая), Евгения Крюкова (Бетси Тверская), Людмила Максакова (графиня Лидия Ивановна), Екатерина Волкова
Описание: Режиссер фильма Сергей Соловьев вынашивал замысел картины более 10 лет, он же написал сценарий. По его словам "создание сценария было тяжелейшей кропотливой работой, проще было написать новый сценарий любой сложности, ведь испытываешь колоссальную ответственность по отношению к тексту Толстого. Нужно было переделать это эпическое произведение в драму, а когда это делаешь, линии сталкиваются между собой по-иному, в других временных отношениях, превращаясь из описательных – в драматические. Я старался сделать это так, чтобы ни в коем случае не насиловать живую органичную плоть романа, старался быть бережным, осторожным, и проводил эту операцию превращения "эпоса в драму" с максимальной аккуратностью". Над экранизацией великого романа Толстого работала сильнейшая команда. Художниками-постановщиками Соловьев пригласил Сергея Иванова и Александра Борисова, с которым успешно работает вот уже 40 лет. Оператор - Сергей Астахов. Съемкам предшествовала тщательная подготовительная работа с привлечением консультантов-историков и литературоведов, ибо одну из главных задач создатели фильма видели в максимально достоверном отображении эпохи и приближению зрителя к миру романа. Это касается не только костюмов и съемочных интерьеров. Например, для знаменитой сцены на катке, специально были изготовлены коньки по старинным эскизам и кресла на полозьях. А для одного из ключевых эпизодов фильма – скачек – в Петербурге специально построили ипподром, воссозданный по эскизам бывших царских конюшен. Натурные съемки проходили в Москве, в Архангельском (музей-усадьба графа Юсупова), в Ясной поляне (музей-усадьба Л.Н.Толстого), Санкт-Петербурге, в Венеции. "Анна Каренина" - Последний фильм с участием Александра Абдулова, одна из последних киноработ Олега Янковского.Качество: HDTVRip [ HDTV 1080I by mydimka]
Формат: AVI
Видео кодек: XviD
Аудио кодек: AC3
Видео: 720x400 (1.80:1), 25 fps, XviD MPEG-4 ~1737 kbps avg, 0.24 bit/pixel
Аудио: 48 kHz, AC3 Dolby Digital, 2/0 (L,R) ch, ~192.00 kbps avg

Внимание. Раздача ведётся путём добавления новых серий

Внимание! Раздача ведётся путём добавления новых серий; при каждом добавлении создётся новый торрент. Чтобы начать докачку новой серии, пользователям необходимо сделать следующее:
(1) остановить скачивание,
(2) удалить старый торрент у себя из клиента (старые серии удалять не надо),
(3) скачать новый торрент и запустить его у себя в клиенте вместо старого, при этом указать клиенту путь в старую папку куда и должно происходить скачивание новых серий.
Ваш клиент при этом должен произвести хеширование (проверку) старой папки (если не производит сам - помогите ему сделать это), и будет докачивать только те серии которых у вас ещё нет. Старые серии при этом не удаляются, а продолжают раздаваться!
Eсли вы уже удалили старые серии, то предотвратить повторную закачку старых серий можно, отжав галочку в соответсвующих местах при запуске нового торрента. По возможности, желательно не удалять старые серии как можно дольше чтобы релизёр не столько продолжал раздавать старые серии, а смог сконцентрироваться на новых

MI

Общее
Полное имя : H:\01 серия.avi
Формат : AVI
Формат/Информация : Audio Video Interleave
Размер файла : 699 Мбайт
Продолжительность : 50 м.
Общий поток : 1940 Кбит/сек
Программа кодирования : VirtualDubModRus 1.5.10.2 (build 2542/release)
Библиотека кодирования : VirtualDubMod build 2542/release
Видео
Идентификатор : 0
Формат : MPEG-4 Visual
Профиль формата : Advanced [email protected]
Параметр BVOP формата : 2
Параметр QPel формата : Нет
Параметр GMC формата : Без точки перехода
Параметр матрицы формата : Выборочная
Режим смешивания : Сжатый битовый поток
Идентификатор кодека : XVID
Идентификатор кодека/Подсказка : XviD
Продолжительность : 50 м.
Битрейт : 1738 Кбит/сек
Ширина : 720 пикселей
Высота : 400 пикселей
Соотношение сторон : 16:9
Частота кадров : 25,000 кадров/сек
Цветовое пространство : YUV
Субдискретизация насыщенности : 4:2:0
Битовая глубина : 8 бит
Тип развёртки : Прогрессивная
Метод сжатия : С потерями
Бит/(Пиксели*Кадры) : 0.241
Размер потока : 626 Мбайт (90%)
Библиотека кодирования : XviD 64
Аудио
Идентификатор : 1
Формат : AC-3
Формат/Информация : Audio Coding 3
Расширение режима : CM (complete main)
Идентификатор кодека : 2000
Продолжительность : 50 м.
Вид битрейта : Постоянный
Битрейт : 192 Кбит/сек
Каналы : 2 канала
Расположение каналов : Front: L R
Частота : 48,0 КГц
Битовая глубина : 16 бит
Метод сжатия : С потерями
Размер потока : 69,1 Мбайт (10%)
Выравнивание : Разделение по промежуткам
Продолжительность промежутка : 40 мс. (1,00 видеокадр)
Время предзагрузки промежутка : 500 мс.
Other forum [Profile] [PM]
Display posts from previous:    
Reply to topic

The time now is: Today 23:43

All times are GMT + 3 Hours



You cannot post new topics in this forum
You cannot reply to topics in this forum
You cannot edit your posts in this forum
You cannot delete your posts in this forum
You cannot vote in polls in this forum
You cannot attach files in this forum
You cannot download files in this forum