Today is a free download without charge Download

Второе дыхание [1 серии из 12] (2013) SATRip [Обновляемая]

Reply to topic
 
Author
Message

UndegraundMen ®

Longevity: 8 years 9 months

Posts: 25145

Торрент-статистика

Post 05-Mar-2013 05:20

[Quote]

Второе дыхание [1 серии из 12] (2013) SATRip [Обновляемая]- Русское название: Второе дыхание
Выпущено: Россия, кинокомпания "RUmedia"
Год выпуска: 2013
Жанр: Mелодрама
Перевод: Оригинал (Русский)
Субтитры: Отсутствуют

Режиссер: Сергей Пикалов
Актеры: Виктория Толстоганова, Марат Башаров, Ксения Суркова, Егор Бероев, Евгения Серебренникова, Геннадий Дурнайкин, Артем Фадеев, Александр Петров (IX), Виктория Садовская-Чилап, Марианна Шульц, Ирина Лосева, Егор Рыбаков, Денис Ясик, Сергей Греков, Галина Польских, Дмитрий Фрид, Эльвира Волошина, Андрей Бутин, Елена Лотова, Юрий Лопарёв, Виталий Филипповых, Ирене Мускара, Сергей Шолох, Андрей Галактионов, Иван Замотаев, Виктор Цекало, Екатерина Преображенская
Описание фильма:
В 2012 году правительство России увеличивает субсидии на развитие НАНОтехнологий. В семье Шевелевых, бывших работников НИИ, физиков по образованию, праздник. Завтра Игорь Шевелев выходит на работу в специальный отдел. Супругам по сорок лет, они вместе учились в университете, затем вместе еще с советских времен работали в НИИ, у них есть взрослая дочь-студентка – Оксана и шестилетний сын Гоша. Супруги едут на банкет, посвященный открытию нанолаборатории. Игорь напивается и в состоянии алкогольного опьянения сбивает сотрудника ГИБДД. Мария берет вину на себя – Игорь получил хорошую работу, а это реальный шанс для семьи Шевелевых вырваться из нищеты и обеспечить будущее детей. Мария получает срок.
Продолжительность: 1 х ~ 00:44:57 серия
Качество видео: SATRip
Видеокодек: DivX 5
Битрейт видео: ~1413 Kbit/s
Размер кадра: 704 x 368
Аудиокодек: MP3, 2.0
Битрейт аудио: 128 Kbit/sВнимание! Раздача ведётся путём добавления новых серий

Внимание! Раздача ведётся путём добавления новых серий. Описание обновления торрента.

Внимание! Раздача ведётся путём добавления новых серий; при каждом добавлении создётся новый торрент. Чтобы начать докачку новой серии, пользователям необходимо сделать следующее:
(1) остановить скачивание,
(2) удалить старый торрент у себя из клиента (старые серии удалять не надо),
(3) скачать новый торрент и запустить его у себя в клиенте вместо старого, при этом указать клиенту путь в старую папку куда и должно происходить скачивание новых серий.
Ваш клиент при этом должен произвести хеширование (проверку) старой папки (если не производит сам - помогите ему сделать это), и будет докачивать только те серии которых у вас ещё нет. Старые серии при этом не удаляются, а продолжают раздаваться!
Eсли вы уже удалили старые серии, то предотвратить повторную закачку старых серий можно, отжав галочку в соответсвующих местах при запуске нового торрента. По возможности, желательно не удалять старые серии как можно дольше чтобы релизёр не столько продолжал раздавать старые серии, а смог сконцентрироваться на новых.

MediaInfo

Общее
Полное имя : D:\Торренты\ФИЛЬМЫ торента\Второе дыхание. 2013. SATRip\Второе дыхание.01.avi
Формат : AVI
Формат/Информация : Audio Video Interleave
Размер файла : 500 Мбайт
Продолжительность : 44 м.
Общий поток : 1554 Кбит/сек
Библиотека кодирования : Boilsoft AVI tool build 1/release
Видео
Идентификатор : 0
Формат : MPEG-4 Visual
Профиль формата : [email protected]
Параметр BVOP формата : Нет
Параметр QPel формата : Нет
Параметр GMC формата : Без точки перехода
Параметр матрицы формата : Default (H.263)
Идентификатор кодека : DX50
Идентификатор кодека/Подсказка : DivX 5
Продолжительность : 44 м.
Битрейт : 1413 Кбит/сек
Ширина : 704 пикс.
Высота : 368 пикс.
Соотношение сторон : 1,913
Частота кадров : 25,000 кадр/сек
Цветовое пространство : YUV
Подвыборка цветности : 4:2:0
Битовая глубина : 8 бит
Тип развёртки : Прогрессивная
Метод сжатия : С потерями
Бит/(Пиксели*Кадры) : 0.218
Размер потока : 454 Мбайт (91%)
Библиотека кодирования : XviD 1.2.1 (UTC 2008-12-04)
Аудио
Идентификатор : 1
Формат : MPEG Audio
Версия формата : Version 1
Профиль формата : Layer 3
Режим : Joint stereo
Расширение режима : MS Stereo
Идентификатор кодека : 55
Идентификатор кодека/Подсказка : MP3
Продолжительность : 44 м.
Вид битрейта : Постоянный
Битрейт : 128 Кбит/сек
Каналы : 2 канала
Частота : 48,0 КГц
Метод сжатия : С потерями
Размер потока : 41,2 Мбайт (8%)
Выравнивание : Соединение по промежуткам
Продолжительность промежутка : 24 мс. (0,60 видеокадр)
Время предзагрузки промежутка : 504 ms
Библиотека кодирования : LAME3.98.2
Скриншоты:
           
Время раздачи: 24/7 по возможности
Other forum [Profile] [PM]
Display posts from previous:    
Reply to topic

The time now is: Today 23:08

All times are GMT + 3 Hours



You cannot post new topics in this forum
You cannot reply to topics in this forum
You cannot edit your posts in this forum
You cannot delete your posts in this forum
You cannot vote in polls in this forum
You cannot attach files in this forum
You cannot download files in this forum