Сегодня идет свободное скачивание без начисления Download

Банда Ольсена. Коллекция / Olsen banden. The Collection (1965-2001) HDRip, DVDRip

Ответить на тему
 
Автор
Сообщение

UndegraundMen ®

Стаж: 5 лет 7 месяцев

Сообщений: 25860

Торрент-статистика

Пост 05-Мар-2013 05:20

[Цитировать]

Банда Ольсена. Коллекция / Olsen banden. The Collection (1965-2001) HDRip, DVDRip- Русское название: Банда Ольсена. Коллекция
Оригинальное название: Olsen banden. The Collection
Год выпуска: 1965-2001
Жанр: Криминальная комедия
Описание фильма: Полная коллекция знаменитого датского сериала. Озвучены все фильмы: 1-6 фильмы (озвучка lehachuev), 7-14-й фильмы и "Марта" (начитал avtandil), "Скандал в старом городе" (начитали avtandil и irinka31), 11-фильм (советский дубляж и одноголоска avtandil), фильм "Банда Ольсена в юности" (озвучено conty9), "Бей первым, Фреди" (советский дубляж) и "Расслабься, Фреди" (многоголосый профессиональный закадровый перевод).
Все рипы сделаны по одному шаблону 720x448 (кроме фильма "Скандал в старом городе", для которого разрешение составляет 720x528), в формате, совместимом с бытовыми видеоплеерами. Источником для HDRip (сериал и фильм "Марта") послужили BDRip (MKV 1200x720 - 1...6-й фильмы, MKV 1280x720 - всё остальное). DVDRip-ы ("Бей первым, Фреди", "Расслабься, Фреди" и "Скандал в старом городе") также сделаны самостоятельно из оригинальных DVD.

01. Банда Ольсена / Olsen banden / The Olsen Gang (1968) HDRip

Банда Ольсена / Olsen banden / The Olsen Gang Страна: Дания
Жанр: Криминальная комедия
Год выпуска: 1968
Продолжительность: 01:17:12

Перевод: Любительский (одноголосый закадровый, озвучка lehachuev /renege79/)
Cубтитры: русские (перевод Tweed)
Оригинальная аудиодорожка: датская
Режиссер: Эрик Баллинг / Erik Balling
В ролях: Ове Спрогёе, Мортен Грунвалль, Поуль Бунгор, Петер Стеен, Поль Райхардт, Кирстен Вальтер, Лотте Тарп, Оле Монти, Грете Сёнк
Описание: Эгон Ольсен, лидер маленькой воровской шайки, решает сделать её самой известной в Дании. Для этого он планирует организовать своё «ограбление века»: выкрасть из музея Копенгагена бесценное произведение искусства. Проблема в том, что экспонат надёжно охраняется, а коллеги Ольсена по банде — далеко не самые толковые люди.
Качество видео: HDRip
Формат видео: AVI
Видео: XviD, 720x448, 16:10, 25 fps, ~1769 kbps avg, 0.22 bit/pixel
Аудио 1: MPEG Layer 3, 48.0 KHz, 128 Kbps, 2 ch, (русская дорожка)
Аудио 2: AC3, 48.0 KHz, 448 Kbps, 6 ch, (датская дорожка)
Аудио 3: MPEG Layer 3, 48.0 KHz, 128 Kbps, 2 ch, (польская дорожка, внешним файлом)
Формат субтитров: softsub (SRT)

MediaInfo

General
Format : AVI
Format/Info : Audio Video Interleave
File size : 1.27 GiB
Duration : 1h 17mn
Overall bit rate : 2 360 Kbps
Writing application : VirtualDubModRus 1.5.10.2 (build 2542/release)
Writing library : VirtualDubMod build 2542/release
Video
ID : 0
Format : MPEG-4 Visual
Format profile : Advanced [email protected]
Format settings, BVOP : 1
Format settings, QPel : No
Format settings, GMC : No warppoints
Format settings, Matrix : Default (H.263)
Codec ID : XVID
Codec ID/Hint : XviD
Duration : 1h 17mn
Bit rate : 1 769 Kbps
Width : 720 pixels
Height : 448 pixels
Display aspect ratio : 1.607
Frame rate : 25.000 fps
Original frame rate : 24.000 fps
Color space : YUV
Chroma subsampling : 4:2:0
Bit depth : 8 bits
Scan type : Progressive
Compression mode : Lossy
Bits/(Pixel*Frame) : 0.219
Stream size : 977 MiB (75%)
Writing library : XviD 1.2.1 (UTC 2008-12-04)
Audio #1
ID : 1
Format : MPEG Audio
Format version : Version 1
Format profile : Layer 3
Mode : Joint stereo
Codec ID : 55
Codec ID/Hint : MP3
Duration : 1h 17mn
Bit rate mode : Constant
Bit rate : 128 Kbps
Channel(s) : 2 channels
Sampling rate : 48.0 KHz
Compression mode : Lossy
Stream size : 70.7 MiB (5%)
Alignment : Split accross interleaves
Interleave, duration : 40 ms (1.00 video frame)
Interleave, preload duration : 500 ms
Audio #2
ID : 2
Format : AC-3
Format/Info : Audio Coding 3
Mode extension : CM (complete main)
Format settings, Endianness : Big
Codec ID : 2000
Duration : 1h 17mn
Bit rate mode : Constant
Bit rate : 448 Kbps
Channel(s) : 6 channels
Channel positions : Front: L C R, Side: L R, LFE
Sampling rate : 48.0 KHz
Bit depth : 16 bits
Compression mode : Lossy
Stream size : 247 MiB (19%)
Alignment : Split accross interleaves
Interleave, duration : 40 ms (1.00 video frame)
Interleave, preload duration : 500 ms
       

02. Банда Ольсена в ловушке / Olsen-banden på spanden/ The Olsen Gang in trouble (1969) HDRip

Банда Ольсена в ловушке / Olsen-banden på spanden / The Olsen Gang in trouble Страна: Дания
Жанр: Криминальная комедия
Год выпуска: 1969
Продолжительность: 01:46:15

Перевод: Любительский (одноголосый закадровый, озвучка lehachuev)
Cубтитры: русские (перевод bakin)
Оригинальная аудиодорожка: датская
Режиссер: Эрик Баллинг / Erik Balling
В ролях: Ове Спрогёе, Мортен Грунвалль, Поуль Бунгор, Петер Стеен, Поль Райхардт
Описание: Второй фильм из сериала о приключениях троих мошенников. Стремясь хорошо выглядеть в глазах женщины из службы социальной реабилитации, Эгон Ольсен на время забывает о преступлениях. И, когда американские гангстеры вламываются в национальный банк, а полиция думает, что это его рук дело, он разыскивает настоящих преступников, чтобы доказать свою невиновность... Но, как давно известно, благие намерения ведут в...
Качество видео: HDRip
Формат видео: AVI
Видео: XviD, 720x448, 16:10, 25 fps, ~1769 kbps avg, 0.22 bit/pixel
Аудио 1: MPEG Layer 3, 48.0 KHz, 128 Kbps, 2 ch, (русская дорожка)
Аудио 2: AC3, 48.0 KHz, 192 Kbps, 2 ch, (датская дорожка)
Аудио 3: MPEG Layer 3, 48.0 KHz, 128 Kbps, 2 ch, (польская дорожка, внешним файлом)
Формат субтитров: softsub (SRT)

MediaInfo

General
Format : AVI
Format/Info : Audio Video Interleave
File size : 1.56 GiB
Duration : 1h 46mn
Overall bit rate : 2 104 Kbps
Writing application : VirtualDubModRus 1.5.10.2 (build 2542/release)
Writing library : VirtualDubMod build 2542/release
Video
ID : 0
Format : MPEG-4 Visual
Format profile : Advanced [email protected]
Format settings, BVOP : 1
Format settings, QPel : No
Format settings, GMC : No warppoints
Format settings, Matrix : Default (H.263)
Codec ID : XVID
Codec ID/Hint : XviD
Duration : 1h 46mn
Bit rate : 1 769 Kbps
Width : 720 pixels
Height : 448 pixels
Display aspect ratio : 1.607
Frame rate : 25.000 fps
Original frame rate : 24.000 fps
Color space : YUV
Chroma subsampling : 4:2:0
Bit depth : 8 bits
Scan type : Progressive
Compression mode : Lossy
Bits/(Pixel*Frame) : 0.219
Stream size : 1.31 GiB (84%)
Writing library : XviD 1.2.1 (UTC 2008-12-04)
Audio #1
ID : 1
Format : MPEG Audio
Format version : Version 1
Format profile : Layer 3
Mode : Joint stereo
Mode extension : MS Stereo
Codec ID : 55
Codec ID/Hint : MP3
Duration : 1h 46mn
Bit rate mode : Constant
Bit rate : 128 Kbps
Channel(s) : 2 channels
Sampling rate : 48.0 KHz
Compression mode : Lossy
Stream size : 97.3 MiB (6%)
Alignment : Split accross interleaves
Interleave, duration : 40 ms (1.00 video frame)
Interleave, preload duration : 500 ms
Audio #2
ID : 2
Format : AC-3
Format/Info : Audio Coding 3
Mode extension : CM (complete main)
Format settings, Endianness : Big
Codec ID : 2000
Duration : 1h 46mn
Bit rate mode : Constant
Bit rate : 192 Kbps
Channel(s) : 2 channels
Channel positions : Front: L R
Sampling rate : 48.0 KHz
Bit depth : 16 bits
Compression mode : Lossy
Stream size : 146 MiB (9%)
Alignment : Split accross interleaves
Interleave, duration : 40 ms (1.00 video frame)
Interleave, preload duration : 500 ms
       

03. Банда Ольсена в Ютландии / Olsen-banden i Jylland / The Olsen Gang in Jutland (1971) HDRip

Банда Ольсена в Ютландии / Olsen-banden i Jylland / The Olsen Gang in Jutland Страна: Дания
Жанр: Криминальная комедия
Год выпуска: 1971
Продолжительность: 01:36:29

Перевод: Любительский (одноголосый закадровый, озвучка lehachuev)
Cубтитры: русские (перевод bakin)
Оригинальная аудиодорожка: датская
Режиссер: Эрик Баллинг / Erik Balling
В ролях: Ове Спрогёе, Мортен Грунвалль, Поуль Бунгор, Петер Стеен, Поль Райхардт
Описание: Как всегда, сразу после выхода из тюрьмы, у Эгона Ольсена есть план. Ему стало известно, что после поражения в 1945 г., в одном из бункеров немцы оставили весьма крупную сумму (в американских долларах и золотых слитках). Единственная проблема состоит в том, что бункер находится на полуострове Ютландия. Эгон, Бенни, и Кельд с Ивонной и Борге отправляются в Ютландию. Они надеются и там дурачить людей, но, к сожалению, дела у них идут совсем не по плану. И, хотя всё закончится, как обычно, и Эгон привычно отправится в тюрьму, но... приключения мошенников заслуживают пристального внимания!
Качество видео: HDRip
Формат видео: AVI
Видео: XviD, 720x448, 16:10, 25 fps, ~1769 kbps avg, 0.22 bit/pixel
Аудио 1: MPEG Layer 3, 48.0 KHz, 128 Kbps, 2 ch, (русская дорожка)
Аудио 2: AC3, 48.0 KHz, 192 Kbps, 2 ch, (датская дорожка)
Аудио 3: MPEG Layer 3, 48.0 KHz, 128 Kbps, 2 ch, (польская дорожка, внешним файлом)
Формат субтитров: softsub (SRT)

MediaInfo

General
Format : AVI
Format/Info : Audio Video Interleave
File size : 1.42 GiB
Duration : 1h 36mn
Overall bit rate : 2 104 Kbps
Writing application : VirtualDubModRus 1.5.10.2 (build 2542/release)
Writing library : VirtualDubMod build 2542/release
Video
ID : 0
Format : MPEG-4 Visual
Format profile : Advanced [email protected]
Format settings, BVOP : 1
Format settings, QPel : No
Format settings, GMC : No warppoints
Format settings, Matrix : Default (H.263)
Codec ID : XVID
Codec ID/Hint : XviD
Duration : 1h 36mn
Bit rate : 1 769 Kbps
Width : 720 pixels
Height : 448 pixels
Display aspect ratio : 1.607
Frame rate : 25.000 fps
Original frame rate : 24.000 fps
Color space : YUV
Chroma subsampling : 4:2:0
Bit depth : 8 bits
Scan type : Progressive
Compression mode : Lossy
Bits/(Pixel*Frame) : 0.219
Stream size : 1.19 GiB (84%)
Writing library : XviD 1.2.1 (UTC 2008-12-04)
Audio #1
ID : 1
Format : MPEG Audio
Format version : Version 1
Format profile : Layer 3
Mode : Joint stereo
Mode extension : MS Stereo
Codec ID : 55
Codec ID/Hint : MP3
Duration : 1h 36mn
Bit rate mode : Constant
Bit rate : 128 Kbps
Channel(s) : 2 channels
Sampling rate : 48.0 KHz
Compression mode : Lossy
Stream size : 88.3 MiB (6%)
Alignment : Split accross interleaves
Interleave, duration : 40 ms (1.00 video frame)
Interleave, preload duration : 500 ms
Audio #2
ID : 2
Format : AC-3
Format/Info : Audio Coding 3
Mode extension : CM (complete main)
Format settings, Endianness : Big
Codec ID : 2000
Duration : 1h 36mn
Bit rate mode : Constant
Bit rate : 192 Kbps
Channel(s) : 2 channels
Channel positions : Front: L R
Sampling rate : 48.0 KHz
Bit depth : 16 bits
Compression mode : Lossy
Stream size : 132 MiB (9%)
Alignment : Split accross interleaves
Interleave, duration : 40 ms (1.00 video frame)
Interleave, preload duration : 500 ms
       

04. Большое ограбление банды Ольсена/ Olsen bandens store kup / The Olsen Gang's grand burglary (1972) HDRip

Большое ограбление банды Ольсена/ Olsen bandens store kup / The Olsen Gang's grand burglary Страна: Дания
Жанр: Криминальная комедия
Год выпуска: 1972
Продолжительность: 01:34:55

Перевод: Любительский (одноголосый закадровый, озвучка lehachuev)
Cубтитры: русские (перевод bakin, коррекция перевода conty9)
Оригинальная аудиодорожка: датская
Режиссер: Эрик Баллинг / Erik Balling
В ролях: Ове Спрогёе, Мортен Грунвалль, Поуль Бунгор, Кирстен Вальтер, Йес Хольтсё, Артур Йенсен, Поуль Райхардт, Йеспер Лангберг
Описание: Банда Ольсена снова занята делом. На этот раз Эгон разработал потрясающий по дерзости и гениальности план - среди бела дня ограбить инкассаторскую машину банка, охраняемую полицией. Самое забавное - то, что ограбленные вплоть до возвращения в банк не подозревают, что их обвели вокруг пальца. Наконец-то Ольсену удалось совершить ограбление века! Но, как оказалось, удержать в руках четыре миллиона непросто - они переходят из рук в руки, как мяч в футбольной игре... И команда, забившая первый гол, не всегда побеждает... Но само зрелище доставит удовольствие!
Качество видео: HDRip
Формат видео: AVI
Видео: XviD, 720x448, 16:10, 25 fps, ~1769 kbps avg, 0.22 bit/pixel
Аудио 1: MPEG Layer 3, 48.0 KHz, 128 Kbps, 2 ch, (русская дорожка)
Аудио 2: AC3, 48.0 KHz, 192 Kbps, 2 ch, (датская дорожка)
Аудио 3: MPEG Layer 3, 48.0 KHz, 128 Kbps, 2 ch, (польская дорожка, внешним файлом)
Формат субтитров: softsub (SRT)

MediaInfo

General
Format : AVI
Format/Info : Audio Video Interleave
File size : 1.40 GiB
Duration : 1h 34mn
Overall bit rate : 2 104 Kbps
Writing application : VirtualDubModRus 1.5.10.2 (build 2542/release)
Writing library : VirtualDubMod build 2542/release
Video
ID : 0
Format : MPEG-4 Visual
Format profile : Advanced [email protected]
Format settings, BVOP : 1
Format settings, QPel : No
Format settings, GMC : No warppoints
Format settings, Matrix : Default (H.263)
Codec ID : XVID
Codec ID/Hint : XviD
Duration : 1h 34mn
Bit rate : 1 769 Kbps
Width : 720 pixels
Height : 448 pixels
Display aspect ratio : 1.607
Frame rate : 25.000 fps
Original frame rate : 24.000 fps
Color space : YUV
Chroma subsampling : 4:2:0
Bit depth : 8 bits
Scan type : Progressive
Compression mode : Lossy
Bits/(Pixel*Frame) : 0.219
Stream size : 1.17 GiB (84%)
Writing library : XviD 1.2.1 (UTC 2008-12-04)
Audio #1
ID : 1
Format : MPEG Audio
Format version : Version 1
Format profile : Layer 3
Codec ID : 55
Codec ID/Hint : MP3
Duration : 1h 34mn
Bit rate mode : Constant
Bit rate : 128 Kbps
Channel(s) : 2 channels
Sampling rate : 48.0 KHz
Compression mode : Lossy
Stream size : 86.9 MiB (6%)
Alignment : Aligned on interleaves
Interleave, duration : 40 ms (1.00 video frame)
Interleave, preload duration : 504 ms
Audio #2
ID : 2
Format : AC-3
Format/Info : Audio Coding 3
Mode extension : CM (complete main)
Format settings, Endianness : Big
Codec ID : 2000
Duration : 1h 34mn
Bit rate mode : Constant
Bit rate : 192 Kbps
Channel(s) : 2 channels
Channel positions : Front: L R
Sampling rate : 48.0 KHz
Bit depth : 16 bits
Compression mode : Lossy
Stream size : 130 MiB (9%)
Alignment : Split accross interleaves
Interleave, duration : 40 ms (1.00 video frame)
Interleave, preload duration : 500 ms
       

05. Банда Ольсена разбушевалась / Olsen banden gaar amok / The Olsen Gang runs amok (1973) HDRip

Банда Ольсена разбушевалась / Olsen banden gaar amok / The Olsen Gang runs amok Страна: Дания
Жанр: Криминальная комедия
Год выпуска: 1973
Продолжительность: 01:36:41

Перевод: Любительский (одноголосый закадровый, озвучка lehachuev)
Cубтитры: русские (перевод bakin)
Оригинальная аудиодорожка: датская
Режиссер: Эрик Баллинг / Erik Balling
В ролях: Ове Спрогёе, Мортен Грунвалль, Поуль Бунгор, Кирстен Вальтер, Йес Хольтсё, Артур Йенсен, Поуль Райхардт, Йеспер Лангберг
Описание: После очередной отсидки Эгон, как всегда, выходит из государственной тюрьмы Вридлёсе. Но встречает его лишь Гарри-Динамит. Оказывается, Бенни и Кельд устроились на работу и больше не хотят иметь с ними дел. Эгону и Гарри не остается ничего другого, кроме как пойти на дело вдвоём. И хотя ничего хорошего из этого не получится, а невиновные Бенни с Кельдом угодят за решётку, всё закончится вполне удачно. Даже для Эгона...
Качество видео: HDRip
Формат видео: AVI
Видео: XviD, 720x448, 16:10, 25 fps, ~1770 kbps avg, 0.22 bit/pixel
Аудио 1: MPEG Layer 3, 48.0 KHz, 128 Kbps, 2 ch, (русская дорожка)
Аудио 2: AC3, 48.0 KHz, 192 Kbps, 2 ch, (датская дорожка)
Аудио 3: MPEG Layer 3, 48.0 KHz, 128 Kbps, 2 ch, (польская дорожка, внешним файлом)
Формат субтитров: softsub (SRT)

MediaInfo

General
Format : AVI
Format/Info : Audio Video Interleave
File size : 1.42 GiB
Duration : 1h 36mn
Overall bit rate : 2 105 Kbps
Writing application : VirtualDubModRus 1.5.10.2 (build 2542/release)
Writing library : VirtualDubMod build 2542/release
Video
ID : 0
Format : MPEG-4 Visual
Format profile : Advanced [email protected]
Format settings, BVOP : 1
Format settings, QPel : No
Format settings, GMC : No warppoints
Format settings, Matrix : Default (H.263)
Codec ID : XVID
Codec ID/Hint : XviD
Duration : 1h 36mn
Bit rate : 1 770 Kbps
Width : 720 pixels
Height : 448 pixels
Display aspect ratio : 1.607
Frame rate : 25.000 fps
Original frame rate : 24.000 fps
Color space : YUV
Chroma subsampling : 4:2:0
Bit depth : 8 bits
Scan type : Progressive
Compression mode : Lossy
Bits/(Pixel*Frame) : 0.220
Stream size : 1.20 GiB (84%)
Writing library : XviD 1.2.1 (UTC 2008-12-04)
Audio #1
ID : 1
Format : MPEG Audio
Format version : Version 1
Format profile : Layer 3
Codec ID : 55
Codec ID/Hint : MP3
Duration : 1h 36mn
Bit rate mode : Constant
Bit rate : 128 Kbps
Channel(s) : 2 channels
Sampling rate : 48.0 KHz
Compression mode : Lossy
Stream size : 88.5 MiB (6%)
Alignment : Aligned on interleaves
Interleave, duration : 40 ms (1.00 video frame)
Interleave, preload duration : 504 ms
Audio #2
ID : 2
Format : AC-3
Format/Info : Audio Coding 3
Mode extension : CM (complete main)
Format settings, Endianness : Big
Codec ID : 2000
Duration : 1h 36mn
Bit rate mode : Constant
Bit rate : 192 Kbps
Channel(s) : 2 channels
Channel positions : Front: L R
Sampling rate : 48.0 KHz
Bit depth : 16 bits
Compression mode : Lossy
Stream size : 133 MiB (9%)
Alignment : Split accross interleaves
Interleave, duration : 40 ms (1.00 video frame)
Interleave, preload duration : 500 ms
       

06. Последнее дело банды Ольсена/ Olsen-bandens sidste bedrifter / The Olsen Gang's last accomplishments (1974) HDRip

Последнее дело банды Ольсена/ Olsen-bandens sidste bedrifter / The Olsen Gang's last accomplishments Страна: Дания
Жанр: Криминальная комедия
Год выпуска: 1974
Продолжительность: 01:33:34

Перевод: Любительский (одноголосый закадровый, озвучка lehachuev)
Cубтитры: русские (перевод bakin, коррекция перевода conty9)
Оригинальная аудиодорожка: датская
Режиссер: Эрик Баллинг / Erik Balling
В ролях: Ове Спрогёе, Мортен Грунвалль, Поуль Бунгор, Кирстен Вальтер, Йес Хольтсё, Аксель Стрёби, Бьёрн Ватт-Боольсен, Оле Эрнст
Описание: В очередной раз Эгон выходит из тюрьмы. У ворот Вридлёсе его, как всегда, радостно приветствуют Бенни, Кьельд и Бёрге. Но, оказывается, не только они встречают Эгона Ольсена... В этот раз Эгону предстоит поработать на крупных международных финансистов, а Бенни и Кьельд попробуют воплотить в жизнь свой план. Получится ли у них работать врозь?
Качество видео: HDRip
Формат видео: AVI
Видео: XviD, 720x448, 16:10, 25 fps, ~1770 kbps avg, 0.22 bit/pixel
Аудио 1: AC3, 48.0 KHz, 192 Kbps, 2 ch, (русская дорожка)
Аудио 2: AC3, 48.0 KHz, 192 Kbps, 2 ch, (датская дорожка)
Аудио 3: MPEG Layer 3, 48.0 KHz, 128 Kbps, 2 ch, (польская дорожка, внешним файлом)
Формат субтитров: softsub (SRT)

MediaInfo

General
Format : AVI
Format/Info : Audio Video Interleave
File size : 1.42 GiB
Duration : 1h 33mn
Overall bit rate : 2 168 Kbps
Writing application : VirtualDubModRus 1.5.10.2 (build 2542/release)
Writing library : VirtualDubMod build 2542/release
Video
ID : 0
Format : MPEG-4 Visual
Format profile : Advanced [email protected]
Format settings, BVOP : 1
Format settings, QPel : No
Format settings, GMC : No warppoints
Format settings, Matrix : Default (H.263)
Codec ID : XVID
Codec ID/Hint : XviD
Duration : 1h 33mn
Bit rate : 1 770 Kbps
Width : 720 pixels
Height : 448 pixels
Display aspect ratio : 1.607
Frame rate : 25.000 fps
Original frame rate : 24.000 fps
Color space : YUV
Chroma subsampling : 4:2:0
Bit depth : 8 bits
Scan type : Progressive
Compression mode : Lossy
Bits/(Pixel*Frame) : 0.219
Stream size : 1.16 GiB (82%)
Writing library : XviD 1.2.1 (UTC 2008-12-04)
Audio #1
ID : 1
Format : AC-3
Format/Info : Audio Coding 3
Mode extension : CM (complete main)
Format settings, Endianness : Big
Codec ID : 2000
Duration : 1h 33mn
Bit rate mode : Constant
Bit rate : 192 Kbps
Channel(s) : 2 channels
Channel positions : Front: L R
Sampling rate : 48.0 KHz
Bit depth : 16 bits
Compression mode : Lossy
Stream size : 128 MiB (9%)
Alignment : Split accross interleaves
Interleave, duration : 40 ms (1.00 video frame)
Interleave, preload duration : 500 ms
Audio #2
ID : 2
Format : AC-3
Format/Info : Audio Coding 3
Mode extension : CM (complete main)
Format settings, Endianness : Big
Codec ID : 2000
Duration : 1h 33mn
Bit rate mode : Constant
Bit rate : 192 Kbps
Channel(s) : 2 channels
Channel positions : Front: L R
Sampling rate : 48.0 KHz
Bit depth : 16 bits
Compression mode : Lossy
Stream size : 128 MiB (9%)
Alignment : Split accross interleaves
Interleave, duration : 40 ms (1.00 video frame)
Interleave, preload duration : 500 ms
       

07. Банда Ольсена идет по следу / Olsen-banden pa sporet / The Olsen Gang on the track (1975) HDRip

Банда Ольсена идет по следу / Olsen-banden pa sporet / The Olsen Gang on the track Страна: Дания
Жанр: Криминальная комедия
Год выпуска: 1975
Продолжительность: 01:40:53

Перевод: Любительский (одноголосый закадровый, озвучка avtandil)
Cубтитры: русские (перевод bakin, коррекция перевода conty9)
Оригинальная аудиодорожка: датская
Режиссер: Эрик Баллинг / Erik Balling
В ролях: Ове Спрогёе, Мортен Грунвалль, Поуль Бунгор, Кирстен Вальтер, Аксель Стрёби, Оле Эрнст
Описание: Наконец-то банда Ольсена может почивать на лаврах. Миллионы, солнечная Испания... Что ещё может не хватать дружной компании. Разве что датского сыра, датских булочек и дождя. И, возможно, совсем чуточку - приключений... Ведь приятно, чёрт возьми, иной раз прокатиться с ветерком по железной дороге в кабине машиниста.
Качество видео: HDRip
Формат видео: AVI
Видео: XviD, 720x448, 16:10, 25 fps, ~1770 kbps avg, 0.22 bit/pixel
Аудио 1: AC3, 48.0 KHz, 192 Kbps, 2 ch, (русская дорожка)
Аудио 2: AC3, 48.0 KHz, 192 Kbps, 2 ch, (датская дорожка)
Аудио 3: MPEG Layer 3, 48.0 KHz, 128 Kbps, 2 ch, (польская дорожка, внешним файлом)
Формат субтитров: softsub (SRT)

MediaInfo

General
Format : AVI
Format/Info : Audio Video Interleave
File size : 1.53 GiB
Duration : 1h 40mn
Overall bit rate : 2 168 Kbps
Writing application : VirtualDubModRus 1.5.10.2 (build 2542/release)
Writing library : VirtualDubMod build 2542/release
Video
ID : 0
Format : MPEG-4 Visual
Format profile : Advanced [email protected]
Format settings, BVOP : 1
Format settings, QPel : No
Format settings, GMC : No warppoints
Format settings, Matrix : Default (H.263)
Codec ID : XVID
Codec ID/Hint : XviD
Duration : 1h 40mn
Bit rate : 1 770 Kbps
Width : 720 pixels
Height : 448 pixels
Display aspect ratio : 1.607
Frame rate : 25.000 fps
Original frame rate : 24.000 fps
Color space : YUV
Chroma subsampling : 4:2:0
Bit depth : 8 bits
Scan type : Progressive
Compression mode : Lossy
Bits/(Pixel*Frame) : 0.219
Stream size : 1.25 GiB (82%)
Writing library : XviD 1.2.1 (UTC 2008-12-04)
Audio #1
ID : 1
Format : AC-3
Format/Info : Audio Coding 3
Mode extension : CM (complete main)
Format settings, Endianness : Big
Codec ID : 2000
Duration : 1h 40mn
Bit rate mode : Constant
Bit rate : 192 Kbps
Channel(s) : 2 channels
Channel positions : Front: L R
Sampling rate : 48.0 KHz
Bit depth : 16 bits
Compression mode : Lossy
Stream size : 139 MiB (9%)
Alignment : Split accross interleaves
Interleave, duration : 40 ms (1.00 video frame)
Interleave, preload duration : 500 ms
Audio #2
ID : 2
Format : AC-3
Format/Info : Audio Coding 3
Mode extension : CM (complete main)
Format settings, Endianness : Big
Codec ID : 2000
Duration : 1h 40mn
Bit rate mode : Constant
Bit rate : 192 Kbps
Channel(s) : 2 channels
Channel positions : Front: L R
Sampling rate : 48.0 KHz
Bit depth : 16 bits
Compression mode : Lossy
Stream size : 139 MiB (9%)
Alignment : Split accross interleaves
Interleave, duration : 40 ms (1.00 video frame)
Interleave, preload duration : 500 ms
       

08. Банда Ольсена в ярости / Olsen-banden ser rodt / Olsen Gang snaps (1976) HDRip

Банда Ольсена в ярости / Olsen-banden ser rodt / Olsen Gang snaps Страна: Дания
Жанр: Криминальная комедия
Год выпуска: 1976
Продолжительность: 01:40:38

Перевод: Любительский (одноголосый закадровый, озвучка avtandil)
Cубтитры: русские (перевод conty9)
Оригинальная аудиодорожка: датская
Режиссер: Эрик Баллинг / Erik Balling
В ролях: Ове Спрогёе, Мортен Грунвалль, Поуль Бунгор, Кирстен Вальтер, Аксель Стрёби, Оле Эрнст, Йес Хольтсё
Описание: Эгону предлагают самое простое дело за всю его жизнь - имитировать кражу древней китайской вазы династии Минь. И, как оно обычно бывает, простое дело оказывается совсем непростым, и невиновный Эгон попадает за решётку. На этот раз к нему на выручку бросается... Ивонна, у которой свои виды на Ольсена. Эгон свободен... Но обида и ярость толкают его на изощрённую месть обидчику. Вот только какие плоды принесут его гениальные планы и сладостна ли свобода на самом деле?
Качество видео: HDRip
Формат видео: AVI
Видео: XviD, 720x448, 16:10, 25 fps, ~1770 kbps avg, 0.22 bit/pixel
Аудио 1: AC3, 48.0 KHz, 192 Kbps, 2 ch, (русская дорожка)
Аудио 2: AC3, 48.0 KHz, 192 Kbps, 2 ch, (датская дорожка)
Аудио 3: MPEG Layer 3, 48.0 KHz, 128 Kbps, 2 ch, (польская дорожка, внешним файлом)
Формат субтитров: softsub (SRT)

MediaInfo

General
Format : AVI
Format/Info : Audio Video Interleave
File size : 1.52 GiB
Duration : 1h 40mn
Overall bit rate : 2 169 Kbps
Writing application : VirtualDubModRus 1.5.10.2 (build 2542/release)
Writing library : VirtualDubMod build 2542/release
Video
ID : 0
Format : MPEG-4 Visual
Format profile : Advanced [email protected]
Format settings, BVOP : 1
Format settings, QPel : No
Format settings, GMC : No warppoints
Format settings, Matrix : Default (H.263)
Codec ID : XVID
Codec ID/Hint : XviD
Duration : 1h 40mn
Bit rate : 1 770 Kbps
Width : 720 pixels
Height : 448 pixels
Display aspect ratio : 1.607
Frame rate : 25.000 fps
Original frame rate : 24.000 fps
Color space : YUV
Chroma subsampling : 4:2:0
Bit depth : 8 bits
Scan type : Progressive
Compression mode : Lossy
Bits/(Pixel*Frame) : 0.219
Stream size : 1.24 GiB (82%)
Writing library : XviD 1.2.1 (UTC 2008-12-04)
Audio #1
ID : 1
Format : AC-3
Format/Info : Audio Coding 3
Mode extension : CM (complete main)
Format settings, Endianness : Big
Codec ID : 2000
Duration : 1h 40mn
Bit rate mode : Constant
Bit rate : 192 Kbps
Channel(s) : 2 channels
Channel positions : Front: L R
Sampling rate : 48.0 KHz
Bit depth : 16 bits
Compression mode : Lossy
Stream size : 138 MiB (9%)
Alignment : Split accross interleaves
Interleave, duration : 40 ms (1.00 video frame)
Interleave, preload duration : 500 ms
Audio #2
ID : 2
Format : AC-3
Format/Info : Audio Coding 3
Mode extension : CM (complete main)
Format settings, Endianness : Big
Codec ID : 2000
Duration : 1h 40mn
Bit rate mode : Constant
Bit rate : 192 Kbps
Channel(s) : 2 channels
Channel positions : Front: L R
Sampling rate : 48.0 KHz
Bit depth : 16 bits
Compression mode : Lossy
Stream size : 138 MiB (9%)
Alignment : Split accross interleaves
Interleave, duration : 40 ms (1.00 video frame)
Interleave, preload duration : 500 ms
       

09. Банда Ольсена - полный вперёд / Olsen-banden deruda' / The Olsen Gang full speed ahead (1977) HDRip

Банда Ольсена - полный вперёд / Olsen-banden deruda' / The Olsen Gang full speed ahead Страна: Дания
Жанр: Криминальная комедия
Год выпуска: 1977
Продолжительность: 01:37:00

Перевод: Любительский (одноголосый закадровый, озвучка avtandil)
Cубтитры: русские (перевод conty9)
Оригинальная аудиодорожка: датская
Режиссер: Эрик Баллинг / Erik Balling
В ролях: Ове Спрогёе, Мортен Грунвалль, Поуль Бунгор, Кирстен Вальтер, Аксель Стрёби, Клаус Рускаер, Пол Хаген
Описание: Эгон стареет. Он теряет былую хватку и страдает склерозом. Из-за этого все его грандиозные планы в последний момент рассыпаются, как карточные домики. Не желая признавать старость, Эгон пресекает попытки Кельда и Бенни поработать в ногу со временем, под началом племянника Ивонны. А сама Ивонна учится летать, т.е., водить машину. Что из этого получится? Видимо, неплохое зрелище...
Качество видео: HDRip
Формат видео: AVI
Видео: XviD, 720x448, 16:10, 25 fps, ~1770 kbps avg, 0.22 bit/pixel
Аудио 1: AC3, 48.0 KHz, 192 Kbps, 2 ch, (русская дорожка)
Аудио 2: AC3, 48.0 KHz, 192 Kbps, 2 ch, (датская дорожка)
Аудио 3: MPEG Layer 3, 48.0 KHz, 128 Kbps, 2 ch, (польская дорожка, внешним файлом)
Формат субтитров: softsub (SRT)

MediaInfo

General
Format : AVI
Format/Info : Audio Video Interleave
File size : 1.47 GiB
Duration : 1h 37mn
Overall bit rate : 2 169 Kbps
Writing application : VirtualDubModRus 1.5.10.2 (build 2542/release)
Writing library : VirtualDubMod build 2542/release
Video
ID : 0
Format : MPEG-4 Visual
Format profile : Advanced [email protected]
Format settings, BVOP : 1
Format settings, QPel : No
Format settings, GMC : No warppoints
Format settings, Matrix : Default (H.263)
Codec ID : XVID
Codec ID/Hint : XviD
Duration : 1h 37mn
Bit rate : 1 770 Kbps
Width : 720 pixels
Height : 448 pixels
Display aspect ratio : 1.607
Frame rate : 25.000 fps
Original frame rate : 24.000 fps
Color space : YUV
Chroma subsampling : 4:2:0
Bit depth : 8 bits
Scan type : Progressive
Compression mode : Lossy
Bits/(Pixel*Frame) : 0.219
Stream size : 1.20 GiB (82%)
Writing library : XviD 1.2.1 (UTC 2008-12-04)
Audio #1
ID : 1
Format : AC-3
Format/Info : Audio Coding 3
Mode extension : CM (complete main)
Format settings, Endianness : Big
Codec ID : 2000
Duration : 1h 37mn
Bit rate mode : Constant
Bit rate : 192 Kbps
Channel(s) : 2 channels
Channel positions : Front: L R
Sampling rate : 48.0 KHz
Bit depth : 16 bits
Compression mode : Lossy
Stream size : 133 MiB (9%)
Alignment : Split accross interleaves
Interleave, duration : 40 ms (1.00 video frame)
Interleave, preload duration : 500 ms
Audio #2
ID : 2
Format : AC-3
Format/Info : Audio Coding 3
Mode extension : CM (complete main)
Format settings, Endianness : Big
Codec ID : 2000
Duration : 1h 37mn
Bit rate mode : Constant
Bit rate : 192 Kbps
Channel(s) : 2 channels
Channel positions : Front: L R
Sampling rate : 48.0 KHz
Bit depth : 16 bits
Compression mode : Lossy
Stream size : 133 MiB (9%)
Alignment : Split accross interleaves
Interleave, duration : 40 ms (1.00 video frame)
Interleave, preload duration : 500 ms
       

10. Банда Ольсена идёт на войну / Olsen-banden gar i krig / The Olsen Gang goes to war (1978) HDRip

Банда Ольсена идёт на войну / Olsen-banden gar i krig / The Olsen Gang goes to war Страна: Дания
Жанр: Криминальная комедия
Год выпуска: 1978
Продолжительность: 01:42:31

Перевод: Любительский (одноголосый закадровый, озвучка avtandil)
Cубтитры: русские (перевод conty9)
Оригинальная аудиодорожка: датская
Режиссер: Эрик Баллинг / Erik Balling
В ролях: Ове Спрогёе, Мортен Грунвалль, Поуль Бунгор, Кирстен Вальтер, Аксель Стрёби, Оле Эрнст
Описание: Банда Ольсена узнаёт о тайном замысле продажных правительственных чиновников, задумавших продать иностранцам планы создания парка развлечений для туристов в Дании. Эта операция может принести злоумышленникам баснословную прибыль и обокрасть всю страну. Соблазн откусить кусочек лакомого пирога появляется и у Эгона...
Качество видео: HDRip
Формат видео: AVI
Видео: XviD, 720x448, 16:10, 25 fps, ~1770 kbps avg, 0.22 bit/pixel
Аудио 1: AC3, 48.0 KHz, 192 Kbps, 2 ch, (русская дорожка)
Аудио 2: AC3, 48.0 KHz, 192 Kbps, 2 ch, (датская дорожка)
Аудио 3: MPEG Layer 3, 48.0 KHz, 128 Kbps, 2 ch, (польская дорожка, внешним файлом)
Формат субтитров: softsub (SRT)

MediaInfo

General
Format : AVI
Format/Info : Audio Video Interleave
File size : 1.55 GiB
Duration : 1h 42mn
Overall bit rate : 2 168 Kbps
Writing application : VirtualDubMod 1.5.10.3 (build 2550/release)
Writing library : VirtualDubMod build 2550/release
Video
ID : 0
Format : MPEG-4 Visual
Format profile : Advanced [email protected]
Format settings, BVOP : 1
Format settings, QPel : No
Format settings, GMC : No warppoints
Format settings, Matrix : Default (H.263)
Codec ID : XVID
Codec ID/Hint : XviD
Duration : 1h 42mn
Bit rate : 1 770 Kbps
Width : 720 pixels
Height : 448 pixels
Display aspect ratio : 1.607
Frame rate : 25.000 fps
Original frame rate : 24.000 fps
Color space : YUV
Chroma subsampling : 4:2:0
Bit depth : 8 bits
Scan type : Progressive
Compression mode : Lossy
Bits/(Pixel*Frame) : 0.219
Stream size : 1.27 GiB (82%)
Writing library : XviD 1.2.1 (UTC 2008-12-04)
Audio #1
ID : 1
Format : AC-3
Format/Info : Audio Coding 3
Mode extension : CM (complete main)
Format settings, Endianness : Big
Codec ID : 2000
Duration : 1h 42mn
Bit rate mode : Constant
Bit rate : 192 Kbps
Channel(s) : 2 channels
Channel positions : Front: L R
Sampling rate : 48.0 KHz
Bit depth : 16 bits
Compression mode : Lossy
Stream size : 141 MiB (9%)
Alignment : Split accross interleaves
Interleave, duration : 40 ms (1.00 video frame)
Interleave, preload duration : 500 ms
Audio #2
ID : 2
Format : AC-3
Format/Info : Audio Coding 3
Mode extension : CM (complete main)
Format settings, Endianness : Big
Codec ID : 2000
Duration : 1h 42mn
Bit rate mode : Constant
Bit rate : 192 Kbps
Channel(s) : 2 channels
Channel positions : Front: L R
Sampling rate : 48.0 KHz
Bit depth : 16 bits
Compression mode : Lossy
Stream size : 141 MiB (9%)
Alignment : Split accross interleaves
Interleave, duration : 40 ms (1.00 video frame)
Interleave, preload duration : 500 ms
       

11. Банда Ольсена никогда не сдается / Операция начнется после полудня / Olsen-banden overgiver sig aldrig / The Olsen Gang never surrenders (1979) HDRip

Банда Ольсена никогда не сдается / Операция начнется после полудня / Olsen-banden overgiver sig aldrig / The Olsen Gang never surrenders Страна: Дания
Жанр: Криминальная комедия
Год выпуска: 1979
Продолжительность: 01:45:33

Перевод 1: Любительский (одноголосый закадровый, озвучка avtandil)
Перевод 2: Профессиональный (дублированный), вырезанные в советском прокате сценки (около 8 мин.) в одноголосой любительской озвучке avtandil.
Cубтитры: русские (перевод conty9)
Оригинальная аудиодорожка: датская
Режиссер: Эрик Баллинг / Erik Balling
В ролях: Ове Спрогёе, Мортен Грунвалль, Поуль Бунгор, Кирстен Вальтер, Аксель Стрёби, Оле Эрнст, Петер Стин
Описание: Очередная уморительная история о похождениях хитроумных мошенников. Главарь банды Эгон Ольсен, отсидев очередной срок в датской тюрьме, набрался знаний по менеджменту и бизнесу у своего сокамерника. Из полученных знаний он сделал только один вывод: бизнес - это законное мошенничество. Освободившись, он немедленно приступает к делу... Вознамерившись прибрать к рукам крупнейший магазин страны, банда Олсен совершает набег на штаб-квартиру ЕС в Брюсселе и даже наведывается в гости к министру... на танке.
В советском прокате был показан в 1984 году под названием "Операция начнется после полудня".
Качество видео: HDRip
Формат видео: AVI
Видео: XviD, 720x448, 16:10, 25 fps, ~1770 kbps avg, 0.22 bit/pixel
Аудио 1: AC3, 48.0 KHz, 192 Kbps, 2 ch, (русская дорожка, одноголосый любительский закадровый перевод)
Аудио 2: AC3, 48.0 KHz, 192 Kbps, 2 ch, (русская дорожка, дубляж СССР)
Аудио 3: AC3, 48.0 KHz, 192 Kbps, 2 ch, (датская дорожка)
Аудио 4: MPEG Layer 3, 48.0 KHz, 128 Kbps, 2 ch, (польская дорожка, внешним файлом)

MediaInfo

General
Format : AVI
Format/Info : Audio Video Interleave
File size : 1.74 GiB
Duration : 1h 45mn
Overall bit rate : 2 365 Kbps
Writing application : VirtualDubModRus 1.5.10.2 (build 2542/release)
Writing library : VirtualDubMod build 2542/release
Video
ID : 0
Format : MPEG-4 Visual
Format profile : Advanced [email protected]
Format settings, BVOP : 1
Format settings, QPel : No
Format settings, GMC : No warppoints
Format settings, Matrix : Default (H.263)
Codec ID : XVID
Codec ID/Hint : XviD
Duration : 1h 45mn
Bit rate : 1 770 Kbps
Width : 720 pixels
Height : 448 pixels
Display aspect ratio : 1.607
Frame rate : 25.000 fps
Original frame rate : 24.000 fps
Color space : YUV
Chroma subsampling : 4:2:0
Bit depth : 8 bits
Scan type : Progressive
Compression mode : Lossy
Bits/(Pixel*Frame) : 0.219
Stream size : 1.31 GiB (75%)
Writing library : XviD 1.2.1 (UTC 2008-12-04)
Audio #1
ID : 1
Format : AC-3
Format/Info : Audio Coding 3
Mode extension : CM (complete main)
Format settings, Endianness : Big
Codec ID : 2000
Duration : 1h 45mn
Bit rate mode : Constant
Bit rate : 192 Kbps
Channel(s) : 2 channels
Channel positions : Front: L R
Sampling rate : 48.0 KHz
Bit depth : 16 bits
Compression mode : Lossy
Stream size : 145 MiB (8%)
Alignment : Split accross interleaves
Interleave, duration : 40 ms (1.00 video frame)
Interleave, preload duration : 500 ms
Audio #2
ID : 2
Format : AC-3
Format/Info : Audio Coding 3
Mode extension : CM (complete main)
Format settings, Endianness : Big
Codec ID : 2000
Duration : 1h 45mn
Bit rate mode : Constant
Bit rate : 192 Kbps
Channel(s) : 2 channels
Channel positions : Front: L R
Sampling rate : 48.0 KHz
Bit depth : 16 bits
Compression mode : Lossy
Stream size : 145 MiB (8%)
Alignment : Split accross interleaves
Interleave, duration : 40 ms (1.00 video frame)
Interleave, preload duration : 500 ms
Audio #3
ID : 3
Format : AC-3
Format/Info : Audio Coding 3
Mode extension : CM (complete main)
Format settings, Endianness : Big
Codec ID : 2000
Duration : 1h 45mn
Bit rate mode : Constant
Bit rate : 192 Kbps
Channel(s) : 2 channels
Channel positions : Front: L R
Sampling rate : 48.0 KHz
Bit depth : 16 bits
Compression mode : Lossy
Stream size : 145 MiB (8%)
Alignment : Split accross interleaves
Interleave, duration : 40 ms (1.00 video frame)
Interleave, preload duration : 500 ms
       

12. Банда Ольсена берёт передышку / Olsen-bandens flugt over plankevaerket / The Olsen Gang's escape over the fence (1981) HDRip

Банда Ольсена берёт передышку / Olsen-bandens flugt over plankevaerket / The Olsen Gang's escape over the fence Страна: Дания
Жанр: Криминальная комедия
Год выпуска: 1981
Продолжительность: 01:30:14

Перевод: Любительский (одноголосый закадровый, озвучка avtandil)
Cубтитры: русские (перевод conty9)
Оригинальная аудиодорожка: датская
Режиссер: Эрик Баллинг / Erik Balling
В ролях: Ове Спрогёе, Мортен Грунвалль, Поуль Бунгор, Кирстен Вальтер, Аксель Стрёби, Оле Эрнст
Описание: После очередной отсидки Ольсен зарекается возвращаться в тюрьму. Всё дело в том, что сменился начальник тюрьмы, и новый начальник захотел перевести Эгона в психиатрическое отделение, на обследование. Поэтому нужно очень осторожно воплотить в жизнь очередной гениальный план Эгона, это дело должно стать последним для банды. Правда, теперь соперник слишком опасен и жизнь Эгона под угрозой...
Качество видео: HDRip
Формат видео: AVI
Видео: XviD, 720x448, 16:10, 25 fps, ~1769 kbps avg, 0.22 bit/pixel
Аудио 1: AC3, 48.0 KHz, 192 Kbps, 2 ch, (русская дорожка)
Аудио 2: AC3, 48.0 KHz, 192 Kbps, 2 ch, (датская дорожка)
Аудио 3: MPEG Layer 3, 48.0 KHz, 128 Kbps, 2 ch, (польская дорожка, внешним файлом)
Формат субтитров: softsub (SRT)

MediaInfo

General
Format : AVI
Format/Info : Audio Video Interleave
File size : 1.37 GiB
Duration : 1h 30mn
Overall bit rate : 2 168 Kbps
Writing application : VirtualDubModRus 1.5.10.2 (build 2542/release)
Writing library : VirtualDubMod build 2542/release
Video
ID : 0
Format : MPEG-4 Visual
Format profile : Advanced [email protected]
Format settings, BVOP : 1
Format settings, QPel : No
Format settings, GMC : No warppoints
Format settings, Matrix : Default (H.263)
Codec ID : XVID
Codec ID/Hint : XviD
Duration : 1h 30mn
Bit rate : 1 769 Kbps
Width : 720 pixels
Height : 448 pixels
Display aspect ratio : 1.607
Frame rate : 25.000 fps
Original frame rate : 24.000 fps
Color space : YUV
Chroma subsampling : 4:2:0
Bit depth : 8 bits
Scan type : Progressive
Compression mode : Lossy
Bits/(Pixel*Frame) : 0.219
Stream size : 1.12 GiB (82%)
Writing library : XviD 1.2.1 (UTC 2008-12-04)
Audio #1
ID : 1
Format : AC-3
Format/Info : Audio Coding 3
Mode extension : CM (complete main)
Format settings, Endianness : Big
Codec ID : 2000
Duration : 1h 30mn
Bit rate mode : Constant
Bit rate : 192 Kbps
Channel(s) : 2 channels
Channel positions : Front: L R
Sampling rate : 48.0 KHz
Bit depth : 16 bits
Compression mode : Lossy
Stream size : 124 MiB (9%)
Alignment : Split accross interleaves
Interleave, duration : 40 ms (1.00 video frame)
Interleave, preload duration : 500 ms
Audio #2
ID : 2
Format : AC-3
Format/Info : Audio Coding 3
Mode extension : CM (complete main)
Format settings, Endianness : Big
Codec ID : 2000
Duration : 1h 30mn
Bit rate mode : Constant
Bit rate : 192 Kbps
Channel(s) : 2 channels
Channel positions : Front: L R
Sampling rate : 48.0 KHz
Bit depth : 16 bits
Compression mode : Lossy
Stream size : 124 MiB (9%)
Alignment : Split accross interleaves
Interleave, duration : 40 ms (1.00 video frame)
Interleave, preload duration : 500 ms
       

13. Банда Ольсена: парижский план / Olsen-banden over alle bjerge / The Olsen Gang long gone (1981) HDRip

Банда Ольсена: парижский план / Olsen-banden over alle bjerge / The Olsen Gang long gone Страна: Дания
Жанр: Криминальная комедия
Год выпуска: 1981
Продолжительность: 01:36:51

Перевод: Любительский (одноголосый закадровый, озвучка avtandil)
Cубтитры: русские (перевод conty9)
Оригинальная аудиодорожка: датская
Режиссер: Эрик Баллинг / Erik Balling
В ролях: Ове Спрогёе, Мортен Грунвалль, Поуль Бунгор, Кирстен Вальтер, Аксель Стрёби, Оле Эрнст
Описание: Продолжение истории, начатой в предыдущем фильме. Поскольку все попытки завладеть деньгами в предыдущей части проваливаются, то для успешного проведения "последнего дела" Ольсен и его друзья вынуждены задействовать в "операции" Ивонну... и продолжить начатое дело в Париже. Ведь время не ждёт, подготовка к серебряной свадьбе Кельда и Ивонны продолжается, а денег для юбилея нет. Будет ли им сопутствовать удача в этот раз?
Качество видео: HDRip
Формат видео: AVI
Видео: XviD, 720x448, 16:10, 25 fps, ~1770 kbps avg, 0.22 bit/pixel
Аудио 1: AC3, 48.0 KHz, 192 Kbps, 2 ch, (русская дорожка)
Аудио 2: AC3, 48.0 KHz, 192 Kbps, 2 ch, (датская дорожка)
Аудио 3: MPEG Layer 3, 48.0 KHz, 128 Kbps, 2 ch, (польская дорожка, внешним файлом)
Формат субтитров: softsub (SRT)

MediaInfo

General
Format : AVI
Format/Info : Audio Video Interleave
File size : 1.47 GiB
Duration : 1h 36mn
Overall bit rate : 2 168 Kbps
Writing application : VirtualDubModRus 1.5.10.2 (build 2542/release)
Writing library : VirtualDubMod build 2542/release
Video
ID : 0
Format : MPEG-4 Visual
Format profile : Advanced [email protected]
Format settings, BVOP : 1
Format settings, QPel : No
Format settings, GMC : No warppoints
Format settings, Matrix : Default (H.263)
Codec ID : XVID
Codec ID/Hint : XviD
Duration : 1h 36mn
Bit rate : 1 769 Kbps
Width : 720 pixels
Height : 448 pixels
Display aspect ratio : 1.607
Frame rate : 25.000 fps
Original frame rate : 24.000 fps
Color space : YUV
Chroma subsampling : 4:2:0
Bit depth : 8 bits
Scan type : Progressive
Compression mode : Lossy
Bits/(Pixel*Frame) : 0.219
Stream size : 1.20 GiB (82%)
Writing library : XviD 1.2.1 (UTC 2008-12-04)
Audio #1
ID : 1
Format : AC-3
Format/Info : Audio Coding 3
Mode extension : CM (complete main)
Format settings, Endianness : Big
Codec ID : 2000
Duration : 1h 36mn
Bit rate mode : Constant
Bit rate : 192 Kbps
Channel(s) : 2 channels
Channel positions : Front: L R
Sampling rate : 48.0 KHz
Bit depth : 16 bits
Compression mode : Lossy
Stream size : 133 MiB (9%)
Alignment : Split accross interleaves
Interleave, duration : 40 ms (1.00 video frame)
Interleave, preload duration : 500 ms
Audio #2
ID : 2
Format : AC-3
Format/Info : Audio Coding 3
Mode extension : CM (complete main)
Format settings, Endianness : Big
Codec ID : 2000
Duration : 1h 36mn
Bit rate mode : Constant
Bit rate : 192 Kbps
Channel(s) : 2 channels
Channel positions : Front: L R
Sampling rate : 48.0 KHz
Bit depth : 16 bits
Compression mode : Lossy
Stream size : 133 MiB (9%)
Alignment : Split accross interleaves
Interleave, duration : 40 ms (1.00 video frame)
Interleave, preload duration : 500 ms
       

14. Последняя миссия банды Ольсена / Olsen-bandens sidste stik / The Olsen Gang's last trick (1998) HDRip

Последняя миссия банды Ольсена / Olsen-bandens sidste stik / The Olsen Gang's last trick Страна: Дания
Жанр: Криминальная комедия
Год выпуска: 1998
Продолжительность: 01:40:41

Перевод: Любительский (одноголосый закадровый, озвучка avtandil)
Cубтитры: русские (перевод conty9)
Оригинальная аудиодорожка: датская
Режиссер: Мортен Арнфред / Morten Arnfred, Том Хедегор / Tom Hedegaard
Консультант: Эрик Баллинг / Erik Balling
В ролях: Ове Спрогёе, Мортен Грунвалль, Поуль Бунгор, Бьёрн Ватт-Больсен, Хенрик Коэфоэд, Оле Эрнст
Описание: С легкой грустью представляю последний фильм "Ольсениады"... Прошло 18 лет, наши герои постарели. Эгон Ольсен из тюрьмы угодил в психушку, где над ним проводили эксперимены. Он почти оглох и носит слуховой аппарат. Кельд вообще передвигается только в инвалидной коляске. Даже Бенни стал намного серьёзнее... Но встретившись, герои решают еще разок тряхнуть стариной...
Качество видео: HDRip
Формат видео: AVI
Видео: XviD, 720x448, 16:10, 25 fps, ~1770 kbps avg, 0.22 bit/pixel
Аудио 1: AC3, 48.0 KHz, 192 Kbps, 2 ch, (русская дорожка)
Аудио 2: AC3, 48.0 KHz, 192 Kbps, 2 ch, (датская дорожка)
Аудио 3: MPEG Layer 3, 48.0 KHz, 128 Kbps, 2 ch, (польская дорожка, внешним файлом)
Формат субтитров: softsub (SRT)

MediaInfo

General
Format : AVI
Format/Info : Audio Video Interleave
File size : 1.53 GiB
Duration : 1h 40mn
Overall bit rate : 2 169 Kbps
Writing application : VirtualDubModRus 1.5.10.2 (build 2542/release)
Writing library : VirtualDubMod build 2542/release
Video
ID : 0
Format : MPEG-4 Visual
Format profile : Advanced [email protected]
Format settings, BVOP : 1
Format settings, QPel : No
Format settings, GMC : No warppoints
Format settings, Matrix : Default (H.263)
Codec ID : XVID
Codec ID/Hint : XviD
Duration : 1h 40mn
Bit rate : 1 771 Kbps
Width : 720 pixels
Height : 448 pixels
Display aspect ratio : 1.607
Frame rate : 25.000 fps
Original frame rate : 24.000 fps
Color space : YUV
Chroma subsampling : 4:2:0
Bit depth : 8 bits
Scan type : Progressive
Compression mode : Lossy
Bits/(Pixel*Frame) : 0.220
Stream size : 1.25 GiB (82%)
Writing library : XviD 1.2.1 (UTC 2008-12-04)
Audio #1
ID : 1
Format : AC-3
Format/Info : Audio Coding 3
Mode extension : CM (complete main)
Format settings, Endianness : Big
Codec ID : 2000
Duration : 1h 40mn
Bit rate mode : Constant
Bit rate : 192 Kbps
Channel(s) : 2 channels
Channel positions : Front: L R
Sampling rate : 48.0 KHz
Bit depth : 16 bits
Compression mode : Lossy
Stream size : 138 MiB (9%)
Alignment : Split accross interleaves
Interleave, duration : 40 ms (1.00 video frame)
Interleave, preload duration : 500 ms
Audio #2
ID : 2
Format : AC-3
Format/Info : Audio Coding 3
Mode extension : CM (complete main)
Format settings, Endianness : Big
Codec ID : 2000
Duration : 1h 40mn
Bit rate mode : Constant
Bit rate : 192 Kbps
Channel(s) : 2 channels
Channel positions : Front: L R
Sampling rate : 48.0 KHz
Bit depth : 16 bits
Compression mode : Lossy
Stream size : 138 MiB (9%)
Alignment : Aligned on interleaves
Interleave, duration : 40 ms (1.00 video frame)
Interleave, preload duration : 512 ms
       

15. Банда Ольсена в юности / Olsen banden junior / The Olsen Junior Gang (2001) HDRip

Банда Ольсена в юности / Olsen banden junior / The Olsen Junior Gang Страна: Дания
Жанр: Криминальная комедия
Год выпуска: 2001
Продолжительность: 01:22:27

Перевод: Любительский (одноголосый закадровый, озвучка conty9)
Cубтитры: русские (перевод conty9)
Оригинальная аудиодорожка: датская
Режиссер: Петер Флинт / Peter Flinth
В ролях: Аксель Лет, Кристиан Столтенберг, Синье Лерче, Йеспер Лангберг, Эллен Хиллингсо
Описание: Банда Ольсена в деле! Или, точнее, как всё начиналось... Далёкий 1958 год... СССР запустил "Спутник-2", который доставил на околоземную орбиту первое живое существо - собаку по кличке Лайка. Но на лавры в запуске первого в мире человека в космос претендует скандинавская компания во главе с Халландсеном. Они решают послать в полёт никому не нужного детдомовского мальчика, Эгона Ольсена, выкупив его у директора детдома за миллион крон. Но Эгон Ольсен далеко не так прост, у него всегда есть план! И к тому же, имеются верные друзья! Невероятная и совершенно фантастическая история приключений подростков интересна прежде всего тем, что рассказывает историю детства и взросления главных героев, раскрывает тайны дружбы и любви. Вы узнаете, откуда у Эгона страсть к котелку и сигаре, и почему Ивонна осталась с Кельдом...
Качество видео: HDRip
Формат видео: AVI
Видео: XviD, 720x448, 16:10, 25 fps, ~2000 kbps avg, 0.24 bit/pixel
Аудио 1: AC3, 48.0 KHz, 192 Kbps, 2 ch, (русская дорожка)
Аудио 2: AC3, 48.0 KHz, 192 Kbps, 2 ch, (датская дорожка)
Формат субтитров: softsub (SRT)

MediaInfo

General
Format : AVI
Format/Info : Audio Video Interleave
File size : 1.38 GiB
Duration : 1h 22mn
Overall bit rate : 2 398 Kbps
Writing application : VirtualDubModRus 1.5.10.2 (build 2542/release)
Writing library : VirtualDubMod build 2542/release
Video
ID : 0
Format : MPEG-4 Visual
Format profile : Advanced [email protected]
Format settings, BVOP : 1
Format settings, QPel : No
Format settings, GMC : No warppoints
Format settings, Matrix : Default (H.263)
Codec ID : XVID
Codec ID/Hint : XviD
Duration : 1h 22mn
Bit rate : 2 000 Kbps
Width : 720 pixels
Height : 448 pixels
Display aspect ratio : 1.607
Frame rate : 25.000 fps
Color space : YUV
Chroma subsampling : 4:2:0
Bit depth : 8 bits
Scan type : Progressive
Compression mode : Lossy
Bits/(Pixel*Frame) : 0.248
Stream size : 1.15 GiB (83%)
Writing library : XviD 1.2.1 (UTC 2008-12-04)
Audio #1
ID : 1
Format : AC-3
Format/Info : Audio Coding 3
Mode extension : CM (complete main)
Format settings, Endianness : Big
Codec ID : 2000
Duration : 1h 22mn
Bit rate mode : Constant
Bit rate : 192 Kbps
Channel(s) : 2 channels
Channel positions : Front: L R
Sampling rate : 48.0 KHz
Bit depth : 16 bits
Compression mode : Lossy
Stream size : 113 MiB (8%)
Alignment : Split accross interleaves
Interleave, duration : 40 ms (1.00 video frame)
Interleave, preload duration : 500 ms
Audio #2
ID : 2
Format : AC-3
Format/Info : Audio Coding 3
Mode extension : CM (complete main)
Format settings, Endianness : Big
Codec ID : 2000
Duration : 1h 22mn
Bit rate mode : Constant
Bit rate : 192 Kbps
Channel(s) : 2 channels
Channel positions : Front: L R
Sampling rate : 48.0 KHz
Bit depth : 16 bits
Compression mode : Lossy
Stream size : 113 MiB (8%)
Alignment : Split accross interleaves
Interleave, duration : 40 ms (1.00 video frame)
Interleave, preload duration : 500 ms
       

16. Марта / Martha / Martha (1967) HDRip

Марта / Martha / Martha Страна: Дания
Жанр: Комедия
Год выпуска: 1967
Продолжительность: 01:33:29

Перевод: Любительский (одноголосый закадровый, озвучка avtandil)
Cубтитры: русские (перевод IVH, коррекция перевода conty9)
Оригинальная аудиодорожка: датская
Режиссер: Эрик Баллинг / Erik Balling
В ролях: Ове Спрогёе, Мортен Грунвалль, Пол Рейчхардт, Поуль Бундгор, Карл Стеггер, Пребен Каас, Хэльге Кьерулф-Шмидт, Ханне Борхсениус, Элени Анусаки
Описание: "Марта" - очень старый и ржавый грузовой пароход, плавающий в водах Средиземноморья. О нём почти забыл владелец, датская судоходная компания. Команда пользуется этим в своих интересах, ведя очень удобную и роскошную жизнь на борту, успешно борясь с финансовыми проблемами. Внезапно владелец судна, вынужденный срочно использовать именно этот пароход, попадает на корабль, причём в самый неподходящий момент. Он дисциплинированный человек и, конечно, не удовлетворен состоянием судна и команды...
Качество видео: HDRip
Формат видео: AVI
Видео: XviD, 720x448, 16:10, 25 fps, ~1770 kbps avg, 0.22 bit/pixel
Аудио 1: AC3, 48.0 KHz, 192 Kbps, 2 ch, (русская дорожка)
Аудио 2: AC3, 48.0 KHz, 192 Kbps, 2 ch, (датская дорожка)
Формат субтитров: softsub (SRT)

MediaInfo

General
Format : AVI
Format/Info : Audio Video Interleave
File size : 1.37 GiB
Duration : 1h 33mn
Overall bit rate : 2 105 Kbps
Writing application : VirtualDubModRus 1.5.10.2 (build 2542/release)
Writing library : VirtualDubMod build 2542/release
Video
ID : 0
Format : MPEG-4 Visual
Format profile : Advanced [email protected]
Format settings, BVOP : 1
Format settings, QPel : No
Format settings, GMC : No warppoints
Format settings, Matrix : Default (H.263)
Codec ID : XVID
Codec ID/Hint : XviD
Duration : 1h 33mn
Bit rate : 1 771 Kbps
Width : 720 pixels
Height : 448 pixels
Display aspect ratio : 1.607
Frame rate : 25.000 fps
Original frame rate : 24.000 fps
Color space : YUV
Chroma subsampling : 4:2:0
Bit depth : 8 bits
Scan type : Progressive
Compression mode : Lossy
Bits/(Pixel*Frame) : 0.220
Stream size : 1.16 GiB (84%)
Writing library : XviD 1.2.1 (UTC 2008-12-04)
Audio #1
ID : 1
Format : AC-3
Format/Info : Audio Coding 3
Mode extension : CM (complete main)
Format settings, Endianness : Big
Codec ID : 2000
Duration : 1h 33mn
Bit rate mode : Constant
Bit rate : 192 Kbps
Channel(s) : 2 channels
Channel positions : Front: L R
Sampling rate : 48.0 KHz
Bit depth : 16 bits
Compression mode : Lossy
Stream size : 128 MiB (9%)
Alignment : Split accross interleaves
Interleave, duration : 40 ms (1.00 video frame)
Interleave, preload duration : 500 ms
Audio #2
ID : 2
Format : MPEG Audio
Codec ID : 55
Codec ID/Hint : MP3
Duration : 1h 33mn
Bit rate : 128 Kbps
Channel(s) : 2 channels
Sampling rate : 48.0 KHz
Compression mode : Lossy
Stream size : 85.6 MiB (6%)
Alignment : Split accross interleaves
Interleave, duration : 40 ms (1.00 video frame)
Interleave, preload duration : 500 ms
       

17. Бей первым, Фреди / Slå først, Frede (1965) DVDRip

Бей первым, Фреди / Slå først, Frede Страна: Дания
Жанр: Комедия, пародия на шпионский боевик
Год выпуска: 1965
Продолжительность: 01:34:01

Cубтитры: нет
Перевод: Профессиональный (полное дублирование, дубляж СССР)
Оригинальная аудиодорожка: датская
Режиссер: Эрик Баллинг / Erik Balling
В ролях: Ове Спрогёе, Мортен Грунвалль, Поуль Бундгор, Мартин Хансен, Фрэнки Стил, Эдвард Флеминг
Описание: Фредди — продавец игрушек и приколов, возвращается из командировки домой в Данию с полным чемоданом товара, намереваясь расширить свой бизнес. Но судьба распоряжается по-другому: вместо игрушечного бизнеса он вовлечен в недетскую войну двух разведок. Фредди становится подсадной уткой и должен играть роль шпиона, а для подстраховки к нему приставлен настоящий суперагент Смит. Как оказалось, Фредди не так прост. Он сам знает, как водить врага за нос, разрушать все его коварные планы и уничтожать секретные ракетные установки.
Качество видео: DVDRip
Формат видео: AVI
Видео: XviD, 720x448, 16:10, 25 fps, ~1600 kbps avg, 0.21 bit/pixel
Аудио 1: AC3, 48.0 KHz, 192 Kbps, 2 ch, (русская дорожка)
Аудио 2: AC3, 48.0 KHz, 192 Kbps, 2 ch, (датская дорожка)

MediaInfo

General
Format : AVI
Format/Info : Audio Video Interleave
File size : 1.31 GiB
Duration : 1h 34mn
Overall bit rate : 1 998 Kbps
Writing application : VirtualDubModRus 1.5.10.2 (build 2542/release)
Writing library : VirtualDubMod build 2542/release
Video
ID : 0
Format : MPEG-4 Visual
Format profile : Advanced [email protected]
Format settings, BVOP : 1
Format settings, QPel : No
Format settings, GMC : No warppoints
Format settings, Matrix : Default (H.263)
Codec ID : XVID
Codec ID/Hint : XviD
Duration : 1h 34mn
Bit rate : 1 600 Kbps
Width : 720 pixels
Height : 448 pixels
Display aspect ratio : 1.607
Frame rate : 25.000 fps
Color space : YUV
Chroma subsampling : 4:2:0
Bit depth : 8 bits
Scan type : Progressive
Compression mode : Lossy
Bits/(Pixel*Frame) : 0.198
Stream size : 1.05 GiB (80%)
Writing library : XviD 1.2.1 (UTC 2008-12-04)
Audio #1
ID : 1
Format : AC-3
Format/Info : Audio Coding 3
Mode extension : CM (complete main)
Format settings, Endianness : Big
Codec ID : 2000
Duration : 1h 34mn
Bit rate mode : Constant
Bit rate : 192 Kbps
Channel(s) : 2 channels
Channel positions : Front: L R
Sampling rate : 48.0 KHz
Bit depth : 16 bits
Compression mode : Lossy
Stream size : 129 MiB (10%)
Alignment : Split accross interleaves
Interleave, duration : 40 ms (1.00 video frame)
Interleave, preload duration : 500 ms
Audio #2
ID : 2
Format : AC-3
Format/Info : Audio Coding 3
Mode extension : CM (complete main)
Format settings, Endianness : Big
Codec ID : 2000
Duration : 1h 34mn
Bit rate mode : Constant
Bit rate : 192 Kbps
Channel(s) : 2 channels
Channel positions : Front: L R
Sampling rate : 48.0 KHz
Bit depth : 16 bits
Compression mode : Lossy
Stream size : 129 MiB (10%)
Alignment : Split accross interleaves
Interleave, duration : 40 ms (1.00 video frame)
Interleave, preload duration : 500 ms
       

18. Расслабься, Фреди / Slap af, Frede (1966) DVDRip

Расслабься, Фреди / Slap af, Frede Страна: Дания
Жанр: Комедия, пародия на шпионский боевик
Год выпуска: 1966
Продолжительность: 01:39:58

Cубтитры: нет
Перевод: Профессиональный (многоголосый, закадровый)
Оригинальная аудиодорожка: датская
Режиссер: Эрик Баллинг / Erik Balling
В ролях: Ове Спрогёе, Мортен Грунвалль, Ханне Борхсениус, Эрик Морк, Клара Понтоппидан, Дирч Пассер
Описание: Продолжение увлекательной комедии "Бей первым, Фреди!" – истории Фредди Хансена, необычного агента, не по своей воле вовлеченного в жестокий и загадочный мир секретных служб. Делегат международной конференции от Китая доктор Линг Фу, похищен прямо из аэропорта, следы похитителей ведут в Скандинавию. Датская секретная служба в панике – все ее агенты раскрыты, нужен человек, которого никто не знает. Суперагент - Фредди Хансен. Фредди снова идет по следу…
Качество видео: DVDRip
Формат видео: AVI
Видео: XviD, 720x448, 16:10, 25 fps, ~1600 kbps avg, 0.21 bit/pixel
Аудио 1: AC3, 48.0 KHz, 192 Kbps, 2 ch, (русская дорожка)
Аудио 2: AC3, 48.0 KHz, 192 Kbps, 2 ch, (датская дорожка)

MediaInfo

General
Format : AVI
Format/Info : Audio Video Interleave
File size : 1.40 GiB
Duration : 1h 39mn
Overall bit rate : 1 998 Kbps
Writing application : VirtualDubModRus 1.5.10.2 (build 2542/release)
Writing library : VirtualDubMod build 2542/release
Video
ID : 0
Format : MPEG-4 Visual
Format profile : Advanced [email protected]
Format settings, BVOP : 1
Format settings, QPel : No
Format settings, GMC : No warppoints
Format settings, Matrix : Default (H.263)
Codec ID : XVID
Codec ID/Hint : XviD
Duration : 1h 39mn
Bit rate : 1 600 Kbps
Width : 720 pixels
Height : 448 pixels
Display aspect ratio : 1.607
Frame rate : 25.000 fps
Color space : YUV
Chroma subsampling : 4:2:0
Bit depth : 8 bits
Scan type : Progressive
Compression mode : Lossy
Bits/(Pixel*Frame) : 0.198
Stream size : 1.12 GiB (80%)
Writing library : XviD 1.2.1 (UTC 2008-12-04)
Audio #1
ID : 1
Format : AC-3
Format/Info : Audio Coding 3
Mode extension : CM (complete main)
Format settings, Endianness : Big
Codec ID : 2000
Duration : 1h 39mn
Bit rate mode : Constant
Bit rate : 192 Kbps
Channel(s) : 2 channels
Channel positions : Front: L R
Sampling rate : 48.0 KHz
Bit depth : 16 bits
Compression mode : Lossy
Stream size : 137 MiB (10%)
Alignment : Split accross interleaves
Interleave, duration : 40 ms (1.00 video frame)
Interleave, preload duration : 500 ms
Audio #2
ID : 2
Format : AC-3
Format/Info : Audio Coding 3
Mode extension : CM (complete main)
Format settings, Endianness : Big
Codec ID : 2000
Duration : 1h 39mn
Bit rate mode : Constant
Bit rate : 192 Kbps
Channel(s) : 2 channels
Channel positions : Front: L R
Sampling rate : 48.0 KHz
Bit depth : 16 bits
Compression mode : Lossy
Stream size : 137 MiB (10%)
Alignment : Split accross interleaves
Interleave, duration : 40 ms (1.00 video frame)
Interleave, preload duration : 500 ms
       

19. Скандал в старом городе / Баллада о Кристиансхауне / Ballade på Christianshavn (1971) DVDRip

Скандал в старом городе / Баллада о Кристиансхауне / Ballade på Christianshavn Страна: Дания
Жанр: Комедия
Год выпуска: 1971
Продолжительность: 01:41:26

Перевод: Любительский (двухголосый закадровый, озвучка avtandil & irinka31)
Cубтитры: русские (перевод conty9)
Оригинальная аудиодорожка: датская
Режиссер: Эрик Баллинг / Erik Balling
В ролях: Поуль Райхардт, Хелле Виркнер, Ове Спрогёе, Поуль Бундгор, Кирстен Вальтер, Йес Хольтсё, Артур Йенсен, Пол Хэйген, Лиз Льоверт
Описание: Добрая датская комедия о перипетиях в ветхом доме старого квартала. Весь квартал, вопреки закону и при поддержке нечистых на руку чиновников, пытаются снести для новой постройки... Но это совсем не нравится жителям дома, и они берутся за дело. Пускай способы для реализации задуманного тоже не совсем законные, но, как говорится: с волками жить...
Качество видео: DVDRip
Формат видео: AVI
Видео: XviD, 720x528, 4:3, 25 fps, ~1799 kbps avg, 0.189 bit/pixel
Аудио 1: AC3, 48.0 KHz, 192 Kbps, 2 ch, (русская дорожка)
Аудио 2: AC3, 48.0 KHz, 192 Kbps, 2 ch, (датская дорожка)

MediaInfo

General
Format : AVI
Format/Info : Audio Video Interleave
File size : 1.69 GiB
Duration : 1h 41mn
Overall bit rate : 2 389 Kbps
Writing application : VirtualDubModRus 1.5.10.2 (build 2542/release)
Writing library : VirtualDubMod build 2542/release
Video
ID : 0
Format : MPEG-4 Visual
Format profile : Advanced [email protected]
Format settings, BVOP : 1
Format settings, QPel : No
Format settings, GMC : No warppoints
Format settings, Matrix : Default (H.263)
Codec ID : XVID
Codec ID/Hint : XviD
Duration : 1h 41mn
Bit rate : 1 799 Kbps
Width : 720 pixels
Height : 528 pixels
Display aspect ratio : 4:3
Frame rate : 25.000 fps
Color space : YUV
Chroma subsampling : 4:2:0
Bit depth : 8 bits
Scan type : Progressive
Compression mode : Lossy
Bits/(Pixel*Frame) : 0.189
Stream size : 1.27 GiB (75%)
Writing library : XviD 1.2.1 (UTC 2008-12-04)
Audio #1
ID : 1
Format : AC-3
Format/Info : Audio Coding 3
Mode extension : CM (complete main)
Format settings, Endianness : Big
Codec ID : 2000
Duration : 1h 41mn
Bit rate mode : Constant
Bit rate : 192 Kbps
Channel(s) : 2 channels
Channel positions : Front: L R
Sampling rate : 48.0 KHz
Bit depth : 16 bits
Compression mode : Lossy
Stream size : 139 MiB (8%)
Alignment : Split accross interleaves
Interleave, duration : 40 ms (1.00 video frame)
Interleave, preload duration : 500 ms
Audio #2
ID : 2
Format : AC-3
Format/Info : Audio Coding 3
Mode extension : CM (complete main)
Format settings, Endianness : Big
Codec ID : 2000
Duration : 1h 41mn
Bit rate mode : Constant
Bit rate : 384 Kbps
Channel(s) : 2 channels
Channel positions : Front: L R
Sampling rate : 48.0 KHz
Bit depth : 16 bits
Compression mode : Lossy
Stream size : 279 MiB (16%)
Alignment : Split accross interleaves
Interleave, duration : 40 ms (1.00 video frame)
Interleave, preload duration : 500 ms
       

описания фильмов в релизе

01. Банда Ольсена / Olsen-banden / The Olsen Gang / October 11, 1968
02. Банда Ольсена в ловушке / Olsen-banden pa spanden / The Olsen Gang in trouble / October 3, 1969
03. Банда Ольсена в Ютландии / Olsen-banden i Jylland / The Olsen Gang in Jutland / October 8, 1971
04. Большое ограбление банды Ольсена / Olsen-bandens store kup / The Olsen Gang's grand burglary / October 6, 1972
05. Банда Ольсена разбушевалась / Olsen-banden gar amok / The Olsen Gang runs amok / October 5, 1973
06. Последнее дело банды Ольсена / Olsen-bandens sidste bedrifter / The Olsen Gang's last accomplishments / October 4, 1974 (этот фильм должен был быть последним)
07. Банда Ольсена идет по следу / Olsen-banden pa sporet / The Olsen Gang on the track / September 26, 1975
08. Банда Ольсена в ярости / Olsen-banden ser rodt / Olsen Gang snaps / October 1, 1976
09. Банда Ольсена - полный вперёд / Olsen-banden deruda' / The Olsen Gang full speed ahead / September 30, 1977
10. Банда Ольсена идёт на войну / Olsen-banden gar i krig / The Olsen Gang goes to war / October 6, 1978
11. Банда Ольсена никогда не сдается / Olsen-banden overgiver sig aldrig / The Olsen Gang never surrenders / October 26, 1979 (в советском прокате назывался "Операция начнется после полудня")
12. Банда Ольсена берёт передышку / Olsen-bandens flugt over plankevaerket / The Olsen Gang's escape over the fence / October 16, 1981
13. Банда Ольсена: парижский план / Olsen-banden over alle bjerge / The Olsen Gang long gone / December 26, 1981
14. Последняя миссия банды Ольсена / Olsen-bandens sidste stik / The Olsen Gang's last trick / December 18, 1998
15. Банда Ольсена в юности / Olsen banden junior / The Olsen Junior Gang / 2001 (фильм официально не входит в сериал, снят с другими актёрами /детьми/)
16. Марта / Martha / Martha / 1967 (фильм официально не входит в сериал, но практически все актёры и режиссёр те же, что и в сериале)
17. Бей первым, Фреди / Slå først, Frede / 1965 (фильм не входит в сериал, актёры и режиссёр те же, что и в сериале)
18. Расслабься, Фреди / Slap af, Frede / 1966 (фильм не входит в сериал, актёры и режиссёр те же, что и в сериале)
19. Скандал в старом городе / Баллада о Кристиансхауне / Ballade på Christianshavn (фильм не входит в сериал, актёры и режиссёр те же, что и в сериале)
* русское название / датское / английское / дата премьеры (примечание)
** поскольку на русский официально переводился только 11-й фильм, русские названия условны.
Хочу поблагодарить: Твид, bakin (Николай Бакин) за перевод первых семи фильмов, lehachuev - за работу над озвучкой 1-6 Фильмов, IVH - за безвозмездную помощь по закачке сериала в BDRip, avtandil за проверку субтитров... и работу над озвучкой 7-14 фильмов, "Марты" и " Скандал в старом городе".
Время раздачи: 24/7 - круглосуточно
Вне форума [Профиль] [ЛС]
Показать сообщения:    
Ответить на тему

Текущее время: Сегодня 04:45

Часовой пояс: GMT + 3



Вы не можете начинать темы
Вы не можете отвечать на сообщения
Вы не можете редактировать свои сообщения
Вы не можете удалять свои сообщения
Вы не можете голосовать в опросах
Вы не можете прикреплять файлы к сообщениям
Вы не можете скачивать файлы