Today is a free download without charge Download

Моими глазами (Сезон 1, 1-19 серии из 19) (2013) DVB

Reply to topic
 
Author
Message

UndegraundMen ®

Longevity: 8 years 9 months

Posts: 25145

Торрент-статистика

Post 05-Mar-2013 05:19

[Quote]

Моими глазами (Сезон 1, 1-19 серии из 19) (2013) DVB- Русское название: Моими глазами (Сезон 1, 1-19 серии из 19) (2013) DVB
Год выпуска: 2013
Жанр: Мистика, триллер
Режиссер: Заур Болотаев
Актеры: Лада Чуровская, Анастасия Стежко, Константин Быков, Татьяна Рыбинец, Лилия Разакова, Вячеслав Чепурченко, Павел Ясенок, Лидия Омутных, Ирина Денисова, Юрий Архангельский
Описание фильма:
Сериал построен по принципу складывающейся головоломки. Каждую серию мы видим глазами ее главного героя. У каждого героя своя история в рамках серии. Эти истории переплетаются между собой, опираясь на систему флешбэков и флешфорвардов. Одни и те же события зритель увидит глазами каждого персонажа, принимающего в них участие.

Дата российской премьеры: 27.01.2013
Продолжительность: 19 x ~ 00:24:00
Качество видео: DVBRip
Видеокодек: MPEG-2
Битрейт видео: ~ 3000 Кбит/с
Размер кадра: 704x576 (1-6 серии), 720x576 (7-19 серии)
Аудиокодек: MP2
Битрейт аудио: 1 ch, 192 Кбит/с

MediaInfo:

Код:
Общее
Полное имя : E:\DOWNLOADS\Моими глазами 2013 DVB\Моими глазами 01 серия.mpg
Формат : MPEG-PS
Размер файла : 493 Мбайт
Продолжительность : 23 м.
Режим общего битрейта : Переменный
Общий поток : 2921 Кбит/сек
Видео
Идентификатор : 224 (0xE0)
Формат : MPEG Video
Версия формата : Version 2
Профиль формата : [email protected]
Параметр BVOP формата : Да
Параметр матрицы формата : Выборочная
Параметр GOP формата : M=3, N=24
Продолжительность : 23 м.
Вид битрейта : Переменный
Битрейт : 2671 Кбит/сек
Максимальный битрейт : 15,0 Мбит/сек
Ширина : 704 пикселя
Высота : 576 пикселей
Соотношение сторон : 4:3
Частота кадров : 25,000 кадров/сек
Стандарт вещания : PAL
Цветовое пространство : YUV
Субдискретизация насыщенности : 4:2:0
Битовая глубина : 8 бит
Метод сжатия : С потерями
Бит/(Пиксели*Кадры) : 0.263
TimeCode_FirstFrame : 00:00:00:00
TimeCode_Source : Group of pictures header
Размер потока : 451 Мбайт (91%)
Аудио
Идентификатор : 192 (0xC0)
Формат : MPEG Audio
Версия формата : Version 1
Профиль формата : Layer 2
Расширение режима : Intensity Stereo + MS Stereo
Продолжительность : 23 м.
Вид битрейта : Постоянный
Битрейт : 192 Кбит/сек
Каналы : 1 канал
Частота : 48,0 КГц
Метод сжатия : С потерями
Размер потока : 32,4 Мбайт (7%)
Код:
Общее
Полное имя : E:\DOWNLOADS\Моими глазами 2013 DVB\Моими глазами 07 серия.mpg
Формат : MPEG-PS
Размер файла : 363 Мбайт
Продолжительность : 18 м.
Режим общего битрейта : Переменный
Общий поток : 2725 Кбит/сек
Видео
Идентификатор : 224 (0xE0)
Формат : MPEG Video
Версия формата : Version 2
Профиль формата : [email protected]
Параметр BVOP формата : Да
Параметр матрицы формата : Выборочная
Параметр GOP формата : Variable
Продолжительность : 18 м.
Вид битрейта : Переменный
Битрейт : 2479 Кбит/сек
Максимальный битрейт : 15,0 Мбит/сек
Ширина : 720 пикселей
Высота : 576 пикселей
Соотношение сторон : 4:3
Частота кадров : 25,000 кадров/сек
Стандарт вещания : PAL
Цветовое пространство : YUV
Субдискретизация насыщенности : 4:2:0
Битовая глубина : 8 бит
Тип развёртки : Чересстрочная
Порядок развёртки : Верхнее поле первое
Метод сжатия : С потерями
Бит/(Пиксели*Кадры) : 0.239
TimeCode_FirstFrame : 00:00:00:00
TimeCode_Source : Group of pictures header
Размер потока : 330 Мбайт (91%)
Аудио
Идентификатор : 192 (0xC0)
Формат : MPEG Audio
Версия формата : Version 1
Профиль формата : Layer 2
Продолжительность : 18 м.
Вид битрейта : Постоянный
Битрейт : 192 Кбит/сек
Каналы : 1 канал
Частота : 48,0 КГц
Метод сжатия : С потерями
Размер потока : 25,6 Мбайт (7%)
Скриншоты:

Время раздачи: c 15:00 до 20:00
Other forum [Profile] [PM]
Display posts from previous:    
Reply to topic

The time now is: Today 05:33

All times are GMT + 3 Hours



You cannot post new topics in this forum
You cannot reply to topics in this forum
You cannot edit your posts in this forum
You cannot delete your posts in this forum
You cannot vote in polls in this forum
You cannot attach files in this forum
You cannot download files in this forum