Сегодня идет свободное скачивание без начисления Download

Колыбельная для мужчин (1978) DVDRip

Ответить на тему
 
Автор
Сообщение

UndegraundMen ®

Стаж: 5 лет 9 месяцев

Сообщений: 25860

Торрент-статистика

Пост 05-Мар-2013 05:19

[Цитировать]

Колыбельная для мужчин (1978) DVDRip- Русское название: Колыбельная для мужчин
Год выпуска: 1978
Жанр: Мелодрама, Драма
Описание фильма:
Подобно многим женщинам послевоенного времени, Клавдия одна воспитывала сына. Они были верными друзьями и союзниками против всех невзгод. Однажды в этом доме появилась красивая и беспечная девушка. Мать старалась не мешать сыну быть счастливым. Но случилось несчастье: фронтовое ранение дало о себе знать — и женщина ослепла…
Режиссер: Иван Лукинский, Владимир Златоустовский
Актеры: Наталья Андрейченко, Николай Горлов, Сергей Лукинский, Люсьена Овчинникова, Татьяна Пельтцер, Наталья Рычагова, Юрий Шлыков, Николай Скоробогатов, Борис Сморчков, Игорь Янковский
Продолжительность: 01:07:28

Видеокодек: DivX Codec 4.x
Битрейт видео:~1699 kbps
Размер кадра: 720x544
Качество видео: DVDRip
Аудиокодек: MP3,2ch
Битрейт аудио: 192 kbps

MI

Общее
Полное имя : C:\Users\1\Downloads\Kolybelnaja dlja muzhchin.avi
Формат : AVI
Формат/Информация : Audio Video Interleave
Размер файла : 919 Мбайт
Продолжительность : 1 ч. 7 м.
Общий поток : 1904 Кбит/сек
Видео
Идентификатор : 0
Формат : MPEG-4 Visual
Профиль формата : [email protected]
Параметр BVOP формата : Нет
Параметр QPel формата : Нет
Параметр GMC формата : Без точки перехода
Параметр матрицы формата : Default (H.263)
Идентификатор кодека : DIVX
Идентификатор кодека/Информация : Project Mayo
Идентификатор кодека/Подсказка : DivX 4
Продолжительность : 1 ч. 7 м.
Битрейт : 1699 Кбит/сек
Ширина : 720 пикселей
Высота : 544 пикселя
Соотношение сторон : 1,281
Частота кадров : 25,000 кадров/сек
Цветовое пространство : YUV
Субдискретизация насыщенности : 4:2:0
Битовая глубина : 8 бит
Тип развёртки : Прогрессивная
Метод сжатия : С потерями
Бит/(Пиксели*Кадры) : 0.174
Размер потока : 820 Мбайт (89%)
Библиотека кодирования : avc2.0.11.1110
Аудио
Идентификатор : 1
Формат : MPEG Audio
Версия формата : Version 1
Профиль формата : Layer 3
Режим : Joint stereo
Расширение режима : MS Stereo
Идентификатор кодека : 55
Идентификатор кодека/Подсказка : MP3
Продолжительность : 1 ч. 7 м.
Вид битрейта : Постоянный
Битрейт : 192 Кбит/сек
Каналы : 2 канала
Частота : 48,0 КГц
Метод сжатия : С потерями
Размер потока : 92,6 Мбайт (10%)
Выравнивание : Соединение по промежуткам
Продолжительность промежутка : 24 мс. (0,60 видеокадр)
Время предзагрузки промежутка : 24 мс.
Библиотека кодирования : LAME3.96.1
Скриншоты:
         
     
Вне форума [Профиль] [ЛС]
Показать сообщения:    
Ответить на тему

Текущее время: Сегодня 16:21

Часовой пояс: GMT + 3



Вы не можете начинать темы
Вы не можете отвечать на сообщения
Вы не можете редактировать свои сообщения
Вы не можете удалять свои сообщения
Вы не можете голосовать в опросах
Вы не можете прикреплять файлы к сообщениям
Вы не можете скачивать файлы