Today is a free download without charge Download

Красный Дракон / Red Dragon (Бретт Рэтнер) [2002 г., триллер, драма, детектив, BDRip720p]

Reply to topic
 
Author
Message

Delia ®

Gender:

Longevity: 10 years

Posts: 1821

Торрент-статистика

Post 11-Jun-2011 11:30

[Quote]

Красный ДраконRed Dragon Год выпуска: 2002
Страна: США, Германия
Жанр: триллер, драма, детектив
Продолжительность: 02:04:26
Перевод: Профессиональный (полное дублирование)
Режиссер: Бретт Рэтнер
Продюссер: Дино Де Лаурентис, Марта Де Лаурентис, Эндрю З. Дэвис
Сценарий: Томас Харрис, Тед Тэлли
В ролях: Энтони Хопкинс, Эдвард Нортон, Рэйф Файнс, Харви Кейтель, Эмили Уотсон, Мэри-Луиз Паркер, Филип Сеймур Хоффман, Энтони Хилд, Кен Люн, Фрэнки Фэйзон
Описание: Действие этой ленты разворачивается до событий, описанных в «Молчании ягнят» и до появления Клариссы Старлинг. Мы знакомимся с человеком, поймавшим Ганнибала Лектера, — специальным агентом ФБР Уиллом Грэмом. После ареста Лектера, который едва не стоил Грэму жизни, Уилл уходит со службы в Бюро.Однако, появление нового жуткого серийного убийцы заставляет Грэма вернуться на службу. Этот безжалостный монстр, которого пресса уже окрестила «Зубной Феей», ночами вырезает целые семейства. Теперь Уиллу нужен совет от опытного специалиста по психическим аномалиям, и он обращается за помощью к своему старому знакомому... доктору «Ганнибалу» Лектеру!
Качество: BDRip720p
Формат: MKV
Видео кодек: H.264
Аудио кодек: AC3
Видео: English, 4196 Кбит/сек, 1280*544 (2,35:1), в 23,976 кадр/сек, AVC ([email protected])
Аудио: Russian, 448 Кбит/сек, 48,0 КГц, 16 бит, 6 канала(ов), AC-3
Аудио:Russian,342 Мбайт, 2 ч. 4 м.384 Кбит/сек, 48,0 КГц, 16 бит, 6 канала(ов), AC-3 |Авторский одноголосый (Гаврилов)народ.ру
Аудио:Russian,342 Мбайт, 2 ч. 4 м.384 Кбит/сек, 48,0 КГц, 16 бит, 6 канала(ов), AC-3 |Профессиональный двухголосый (Гланц и Королёва)народ.ру
Аудио:English, 384 Кбит/сек, 48,0 КГц, 16 бит, 6 канала(ов), AC-3
Субтитры:English, VobSub

MI:

Общее
Уникальный идентификатор : 182036366010813242574376775997538004256 (0x88F2EDC79747A514B7C0585CA79D6D20)
Полное имя : D:\торрент\Red Dragon (2002)BDRip720p .mkv
Формат : Matroska
Размер файла : 4,37 Гбайт
Продолжительность : 2 ч. 4 м.
Общий поток : 5031 Кбит/сек
Дата кодирования : UTC 2011-06-11 06:43:29
Программа кодирования : mkvmerge v4.8.0 ('I Got The...') built on May 24 2011 03:12:58
Библиотека кодирования : libebml v1.2.0 + libmatroska v1.1.0
Видео
Идентификатор : 1
Формат : AVC
Формат/Информация : Advanced Video Codec
Профиль формата : [email protected]
Параметр CABAC формата : Да
Параметр ReFrames формата : 10 кадры
Идентификатор кодека : V_MPEG4/ISO/AVC
Продолжительность : 2 ч. 4 м.
Битрейт : 4196 Кбит/сек
Ширина : 1280 пикс.
Высота : 544 пикс.
Соотношение сторон : 2,35:1
Частота кадров : 23,976 кадр/сек
Цветовое пространство : YUV
Подвыборка цветности : 4:2:0
Битовая глубина : 8 бит
Тип развёртки : Прогрессивная
Бит/(Пиксели*Кадры) : 0.251
Размер потока : 3,56 Гбайт (81%)
Библиотека кодирования : x264 core 115 r1995 c1e60b9
Настройки программы : cabac=1 / ref=10 / deblock=1:-2:-2 / analyse=0x3:0x133 / me=umh / subme=8 / psy=1 / psy_rd=1.00:0.15 / mixed_ref=1 / me_range=32 / chroma_me=1 / trellis=2 / 8x8dct=1 / cqm=0 / deadzone=21,11 / fast_pskip=0 / chroma_qp_offset=-3 / threads=6 / sliced_threads=0 / nr=0 / decimate=1 / interlaced=0 / bluray_compat=0 / constrained_intra=0 / bframes=6 / b_pyramid=2 / b_adapt=2 / b_bias=0 / direct=3 / weightb=1 / open_gop=0 / weightp=2 / keyint=250 / keyint_min=24 / scenecut=40 / intra_refresh=0 / rc_lookahead=50 / rc=2pass / mbtree=1 / bitrate=4196 / ratetol=1.0 / qcomp=0.60 / qpmin=0 / qpmax=69 / qpstep=4 / cplxblur=20.0 / qblur=0.5 / ip_ratio=1.40 / aq=1:1.00
Язык : English
Аудио #1
Идентификатор : 2
Формат : AC-3
Формат/Информация : Audio Coding 3
Расширение режима : CM (complete main)
Идентификатор кодека : A_AC3
Продолжительность : 2 ч. 4 м.
Вид битрейта : Постоянный
Битрейт : 448 Кбит/сек
Канал(ы) : 6 канала(ов)
Расположение каналов : Front: L C R, Side: L R, LFE
Частота : 48,0 КГц
Битовая глубина : 16 бит
Метод сжатия : С потерями
Размер потока : 399 Мбайт (9%)
Язык : Russian
Аудио #2
Идентификатор : 3
Формат : AC-3
Формат/Информация : Audio Coding 3
Расширение режима : CM (complete main)
Идентификатор кодека : A_AC3
Продолжительность : 2 ч. 4 м.
Вид битрейта : Постоянный
Битрейт : 384 Кбит/сек
Канал(ы) : 6 канала(ов)
Расположение каналов : Front: L C R, Side: L R, LFE
Частота : 48,0 КГц
Битовая глубина : 16 бит
Метод сжатия : С потерями
Размер потока : 342 Мбайт (8%)
Язык : English
Текст
Идентификатор : 4
Формат : VobSub
Режим смешивания : zlib
Идентификатор кодека : S_VOBSUB
Идентификатор кодека/Информация : The same subtitle format used on DVDs
Язык : English
Меню
00:00:00.000 : en:00:00:00.000
00:08:46.067 : en:00:08:46.067
00:11:11.962 : en:00:11:11.962
00:16:05.881 : en:00:16:05.881
00:26:43.268 : en:00:26:43.268
00:29:02.407 : en:00:29:02.407
00:36:58.049 : en:00:36:58.049
00:39:06.761 : en:00:39:06.761
00:50:45.500 : en:00:50:45.500
00:58:03.563 : en:00:58:03.563
01:04:54.015 : en:01:04:54.015
01:08:27.103 : en:01:08:27.103
01:11:26.282 : en:01:11:26.282
01:24:34.152 : en:01:24:34.152
01:32:43.849 : en:01:32:43.849
01:37:12.201 : en:01:37:12.201
01:40:46.039 : en:01:40:46.039
01:44:40.524 : en:01:44:40.524
01:52:54.017 : en:01:52:54.017
02:00:06.741 : en:02:00:06.741

Скриншоты

        

_________________
Человек – это канат, натянутый между животным и сверхчеловеком, – канат над пропастью.
В человеке ценно то, что он мост, а не цель. Фридрих Ницше


Last edited by Delia on 2011-08-26 18:33; edited 4 times in total
Other forum [Profile] [PM]
Display posts from previous:    
Reply to topic

The time now is: Today 12:27

All times are GMT + 3 Hours



You cannot post new topics in this forum
You cannot reply to topics in this forum
You cannot edit your posts in this forum
You cannot delete your posts in this forum
You cannot vote in polls in this forum
You cannot attach files in this forum
You cannot download files in this forum