Today is a free download without charge Download

Discovery: Не пытайтесь повторить! Выпуск № 2/ You Have Been Warned. (2013) WEB-Rip [H.264]

Reply to topic
 
Author
Message

UndegraundMen ®

Longevity: 7 years 7 months

Posts: 25145

Торрент-статистика

Post 05-Mar-2013 05:17

[Quote]

Discovery: Не пытайтесь повторить! Выпуск № 2 / You Have Been Warned. (2013) WEB-Rip [H.264]- Русское название: Discovery: Не пытайтесь повторить!
Оригинальное название: You Have Been Warned.
Режиссер / Телекомпания: Discovery Channel
Год выпуска: 2013
Жанр: Научно-популярное, шокирующее шоу
Режиссер: Том Хини
Ведущий: Гарет Корник
Описание:
Программа «Не пытайтесь повторить» показывает 20 лучших роликов, выложенных на YouTube, на которых запечатлены научные эксперименты, поставленные в домашних условиях.
В каждой серии создатели программы демонстрируют умный, смешной или просто странный видеосюжет, а потом ведущие ученые разбирают его в деталях и объясняют суть.
Вместе с ними зрители совершат ряд открытий из области биологии, физики или химии, которые лежат в основе этих опытов. Вы увидите летательный аппарат, работающий на мускульной силе и созданный в Канаде, встретитесь с исследователями космоса из Великобритании, познакомитесь с девушками из США и Новой Зеландии, которые умеют говорить задом наперед, а также услышите рок-группу, где играют роботы!
Для этой программы было отобрано только самое лучшее - от экспериментов, которые люди ставят сами на себе, до головокружительных каскадерских трюков.
В этом выпуске:"Любители мощности"
Добро пожаловать вновь в наш рейтинг самых мощных маньяков мощности в мире. По мере увеличения мощности наши ученые-самоучки задействуют силы природы все более хитрыми способами. Где лучше начать, чем не в туалете самолета?
Не пытайтесь повторить! на nnm-club
Продолжительность: 00:33:05
Перевод: Одноголосый закадровый, профессиональный
Видеокодек: H.264
Битрейт видео: ~1257 Кбит/сек
Размер кадра: 856x480
Качество видео: WEB-Rip
Аудиокодек: MP3
Битрейт аудио: 192 Кбит/сек
Скриншоты:
       
       

MediaInfo

Общее
Полное имя : H:\ДОКУМЕНТАЛКИ\Не пытайтесь повторить! 2 выпуск.avi
Формат : AVI
Формат/Информация : Audio Video Interleave
Размер файла : 346 Мбайт
Продолжительность : 33 м.
Режим общего битрейта : Переменный
Общий поток : 1462 Кбит/сек
Программа кодирования : Lavf51.12.1
Видео
Идентификатор : 0
Формат : AVC
Формат/Информация : Advanced Video Codec
Профиль формата : [url=mailto:[email protected]][email protected][/url]
Параметр CABAC формата : Нет
Параметр ReFrames формата : 1 кадр
Параметр GOP формата : M=1, N=12
Идентификатор кодека : H264
Продолжительность : 33 м.
Вид битрейта : Переменный
Битрейт : 1257 Кбит/сек
Максимальный битрейт : 1800 Кбит/сек
Ширина : 856 пикселей
Высота : 480 пикселей
Соотношение сторон : 16:9
Частота кадров : 25,000 кадров/сек
Частота кадров в оригинале : 24,000 кадра/сек
Цветовое пространство : YUV
Субдискретизация насыщенности : 4:2:0
Битовая глубина : 8 бит
Тип развёртки : Прогрессивная
Бит/(Пиксели*Кадры) : 0.122
Размер потока : 297 Мбайт (86%)
Аудио
Идентификатор : 1
Формат : MPEG Audio
Версия формата : Version 1
Профиль формата : Layer 3
Режим : Joint stereo
Расширение режима : MS Stereo
Идентификатор кодека : 55
Идентификатор кодека/Подсказка : MP3
Продолжительность : 33 м.
Вид битрейта : Постоянный
Битрейт : 192 Кбит/сек
Каналы : 2 канала
Частота : 44,1 КГц
Метод сжатия : С потерями
Размер потока : 45,4 Мбайт (13%)
Выравнивание : Соединение по промежуткам
Продолжительность промежутка : 26 мс. (0,65 видеокадр)
Время предзагрузки промежутка : 26 мс.
Библиотека кодирования : LAME3.97
Время раздачи: с 9:00 до 21:00 по МСК
Other forum [Profile] [PM]
Display posts from previous:    
Reply to topic

The time now is: Today 01:57

All times are GMT + 3 Hours



You cannot post new topics in this forum
You cannot reply to topics in this forum
You cannot edit your posts in this forum
You cannot delete your posts in this forum
You cannot vote in polls in this forum
You cannot attach files in this forum
You cannot download files in this forum