Сегодня идет свободное скачивание без начисления Download

Дикая вишня / Wild Cherry (Дэна Лустиг / Dana Lustig) [2009 г.] (комедия) [DVDRip] (MVO)

Ответить на тему
 
Автор
Сообщение

Omen ®

Стаж: 6 лет 4 месяца

Сообщений: 184267

Торрент-статистика

Пост 10-Июн-2011 19:42

[Цитировать]

Дикая вишня / Wild Cherry
Год выпуска: 2009
Мировая премьера: 8 февраля 2009
Дата выхода DVD: 9 июня 2011, «Новый Диск», ...
Производство: США Byron A. Martin Productions, Farpoint Films Inc., Rampage Entertainment
Жанр: комедия
Продолжительность: 01:21:46
Перевод: Профессиональный (многоголосый закадровый) [Лицензия]
Режиссер: Дэна Лустиг / Dana Lustig-В ролях: Румер Уиллис, Таня Рэймонд, Кристин Каваллари, Райан Мерриман, Джесси Мосс, Джон Уайт-Описание: Девственница из выпускного класса решает расквитаться со своим парнем-качком, когда обнаруживает, что он встречается с ней только потому, что надеется занести ее в свою книжку сексуальных достижений…- -Источник/Качество: DVDRip
Формат: AVI
Видео кодек: XviD
Аудио кодек: AC3
Видео: 720x400 (1.80:1), 25 fps, XviD build 47 ~1995 kbps avg, 0.28 bit/pixel
Аудио: 48 kHz, AC3 Dolby Digital, 3/2 (L,C,R,l,r) + LFE ch, ~384.00 kbps avg-Сэмпл-

Media Info


Полное имя : W:\Торрент WD\Dikaja.vishnja.2009.P.DVDRip.avi
Формат : AVI
Формат/Информация : Audio Video Interleave
Размер файла : 1,36 Гбайт
Продолжительность : 1 ч. 21 м.
Общий поток : 2390 Кбит/сек
Название фильма : Dikaja.vishnja.2009.DVDRip
Режиссёр : ELEKTRO-Am
Жанр : Comedy
Программа кодирования : VirtualDubMod 1.5.4.1 (build 2178/release)
Формат оригинала/Имя : Movie
Видео
Идентификатор : 0
Формат : MPEG-4 Visual
Профиль формата : Advanced [email protected]
Параметр BVOP формата : 2
Параметр QPel формата : Нет
Параметр GMC формата : Без точки перехода
Параметр матрицы формата : Выборочная
Идентификатор кодека : XVID
Идентификатор кодека/Подсказка : XviD
Продолжительность : 1 ч. 21 м.
Битрейт : 1996 Кбит/сек
Ширина : 720 пикс.
Высота : 400 пикс.
Соотношение сторон : 16:9
Частота кадров : 25,000 кадр/сек
Цветовое пространство : YUV
Подвыборка цветности : 4:2:0
Битовая глубина : 8 бит
Тип развёртки : Прогрессивная
Метод сжатия : С потерями
Бит/(Пиксели*Кадры) : 0.277
Размер потока : 1,14 Гбайт (84%)
Библиотека кодирования : XviD 1.2.0.dev47 (UTC 2006-11-01)
Аудио
Идентификатор : 1
Формат : AC-3
Формат/Информация : Audio Coding 3
Расширение режима : CM (complete main)
Идентификатор кодека : 2000
Продолжительность : 1 ч. 21 м.
Вид битрейта : Постоянный
Битрейт : 384 Кбит/сек
Канал(ы) : 6 канала(ов)
Расположение каналов : Front: L C R, Side: L R, LFE
Частота : 48,0 КГц
Битовая глубина : 16 бит
Метод сжатия : С потерями
Задержка видео : 250 мс.
Размер потока : 225 Мбайт (16%)
Выравнивание : Разделение по промежуткам
Продолжительность промежутка : 40 мс. (1,00 видеокадр)
Время предзагрузки промежутка : 500 ms
           


Последний раз редактировалось: Omen (2011-06-10 19:43), всего редактировалось 2 раз(а)
Вне форума [Профиль] [ЛС]
Похожие темы
Форум Тема Автор Торрент Отв. Посл. сообщение
./templates/default/images/folder_dl.gif Зарубежное кино Дикая / Wild (Жан-Марк Валле / Jean-Marc Valle) [2014, США, Драма, биография, Blu-ray disc] Dub + Sub Rus, Eng + Original Eng Omen
1 | 0

1 | 1323

20

2015-05-08 07:34
Dracula Последнее
Показать сообщения:    
Ответить на тему

Текущее время: Сегодня 14:04

Часовой пояс: GMT + 3



Вы не можете начинать темы
Вы не можете отвечать на сообщения
Вы не можете редактировать свои сообщения
Вы не можете удалять свои сообщения
Вы не можете голосовать в опросах
Вы не можете прикреплять файлы к сообщениям
Вы не можете скачивать файлы