Today is a free download without charge Download

Солярис (Андрей Тарковский) [1972 г., фантастика, драма, мелодрама, детектив, приключения, BDRip 720p]

Reply to topic
 
Author
Message

Delia ®

Gender:

Longevity: 11 years

Posts: 1821

Торрент-статистика

Post 10-Jun-2011 18:21

[Quote]

Солярис Год выпуска: 1972
Страна: СССР
Жанр: фантастика, драма, мелодрама, детектив, приключения
Продолжительность: 02:46:56
Перевод: Не требуется
Режиссер: Андрей Тарковский
Сценарий: Станислав Лем, Фридрих Горенштейн, Андрей Тарковский
Бюджет: 20 марта 1972
Премьера в мире: 20 марта 1972
В ролях: Наталья Бондарчук, Донатас Банионис, Юри Ярвет, Владислав Дворжецкий, Николай Гринько, Анатолий Солоницын, Ольга Барнет, Виталик Кердимун, Ольга Кизилова, Татьяна Малых
Описание: На космическую станцию, сотрудники которой давно и тщетно пытаются сладить с загадкой планеты Солярис, покрытой Океаном, прибывает новый обитатель, психолог Крис Кельвин, чтобы разобраться в странных сообщениях, поступающих со станции, и «закрыть» ее вместе со всей бесплодной «соляристикой». Поначалу ему кажется, что немногие уцелевшие на станции ученые сошли с ума. Потом он и сам становится жертвой жуткого наваждения: ему является его бывшая возлюбленная Хари, некогда на земле покончившая с собой.
Качество: BDRip720p
Формат: MKV
Видео кодек: H.264
Аудио кодек: AC3
Видео: English, 4984 Кбит/сек, 1280*544 (2,35:1), в 23,976 кадр/сек, AVC ([email protected])
Аудио: Russian, 448 Кбит/сек, 48,0 КГц, 16 бит, 6 канала(ов), AC-3 | Крупный план
Субтитры:English - VobSub

MI:

Общее
Уникальный идентификатор : 215223501181083391637318203927309014226 (0xA1EA89DF76F7D5CC9DD71EB83A9754D2)
Полное имя : D:\торрент\Solaris.1972.BDRip720р.mkv
Формат : Matroska
Размер файла : 6,34 Гбайт
Продолжительность : 2 ч. 46 м.
Общий поток : 5436 Кбит/сек
Дата кодирования : UTC 2011-06-02 06:01:44
Программа кодирования : mkvmerge v4.8.0 ('I Got The...') built on May 24 2011 03:12:58
Библиотека кодирования : libebml v1.2.0 + libmatroska v1.1.0
Видео
Идентификатор : 1
Формат : AVC
Формат/Информация : Advanced Video Codec
Профиль формата : [email protected]
Параметр CABAC формата : Да
Параметр ReFrames формата : 12 кадры
Идентификатор кодека : V_MPEG4/ISO/AVC
Продолжительность : 2 ч. 46 м.
Битрейт : 4984 Кбит/сек
Ширина : 1280 пикс.
Высота : 544 пикс.
Соотношение сторон : 2,35:1
Частота кадров : 23,976 кадр/сек
Цветовое пространство : YUV
Подвыборка цветности : 4:2:0
Битовая глубина : 8 бит
Тип развёртки : Прогрессивная
Бит/(Пиксели*Кадры) : 0.299
Размер потока : 5,69 Гбайт (90%)
Библиотека кодирования : x264 core 115 r1995 c1e60b9
Настройки программы : cabac=1 / ref=12 / deblock=1:-2:-2 / analyse=0x3:0x133 / me=umh / subme=8 / psy=1 / psy_rd=1.00:0.15 / mixed_ref=1 / me_range=36 / chroma_me=1 / trellis=2 / 8x8dct=1 / cqm=0 / deadzone=21,11 / fast_pskip=0 / chroma_qp_offset=-3 / threads=6 / sliced_threads=0 / nr=0 / decimate=1 / interlaced=0 / bluray_compat=0 / constrained_intra=0 / bframes=8 / b_pyramid=2 / b_adapt=2 / b_bias=0 / direct=3 / weightb=1 / open_gop=0 / weightp=2 / keyint=250 / keyint_min=23 / scenecut=40 / intra_refresh=0 / rc_lookahead=50 / rc=2pass / mbtree=1 / bitrate=4984 / ratetol=1.0 / qcomp=0.80 / qpmin=0 / qpmax=69 / qpstep=4 / cplxblur=20.0 / qblur=0.5 / ip_ratio=1.40 / aq=1:1.00
Язык : English
Аудио
Идентификатор : 2
Формат : AC-3
Формат/Информация : Audio Coding 3
Расширение режима : CM (complete main)
Идентификатор кодека : A_AC3
Продолжительность : 2 ч. 46 м.
Вид битрейта : Постоянный
Битрейт : 448 Кбит/сек
Канал(ы) : 6 канала(ов)
Расположение каналов : Front: L C R, Side: L R, LFE
Частота : 48,0 КГц
Битовая глубина : 16 бит
Метод сжатия : С потерями
Размер потока : 535 Мбайт (8%)
Язык : Russian
Текст
Идентификатор : 3
Формат : VobSub
Режим смешивания : zlib
Идентификатор кодека : S_VOBSUB
Идентификатор кодека/Информация : The same subtitle format used on DVDs
Язык : English
Меню
00:00:00.000 : en:00:00:00.000
00:03:12.067 : en:00:03:12.067
00:11:26.936 : en:00:11:26.936
00:17:58.828 : en:00:17:58.828
00:21:04.763 : en:00:21:04.763
00:26:18.118 : en:00:26:18.118
00:28:41.428 : en:00:28:41.428
00:33:30.175 : en:00:33:30.175
00:38:24.177 : en:00:38:24.177
00:43:13.508 : en:00:43:13.508
00:45:39.737 : en:00:45:39.737
00:51:48.689 : en:00:51:48.689
00:57:36.453 : en:00:57:36.453
01:04:29.991 : en:01:04:29.991
01:12:06.948 : en:01:12:06.948
01:19:22.883 : en:01:19:22.883
01:22:20.686 : en:01:22:20.686
01:27:18.150 : en:01:27:18.150
01:30:58.578 : en:01:30:58.578
01:34:52.270 : en:01:34:52.270
01:39:09.485 : en:01:39:09.485
01:44:37.563 : en:01:44:37.563
01:49:49.541 : en:01:49:49.541
01:55:29.506 : en:01:55:29.506
02:08:26.032 : en:02:08:26.032
02:12:00.246 : en:02:12:00.246
02:14:26.350 : en:02:14:26.350
02:21:49.626 : en:02:21:49.626
02:27:22.876 : en:02:27:22.876
02:33:36.457 : en:02:33:36.457
02:37:14.175 : en:02:37:14.175
02:41:03.362 : en:02:41:03.362

Скриншоты

        

_________________
Человек – это канат, натянутый между животным и сверхчеловеком, – канат над пропастью.
В человеке ценно то, что он мост, а не цель. Фридрих Ницше


Last edited by Delia on 2011-08-26 18:33; edited 1 time in total
Other forum [Profile] [PM]
Display posts from previous:    
Reply to topic

The time now is: Today 20:56

All times are GMT + 3 Hours



You cannot post new topics in this forum
You cannot reply to topics in this forum
You cannot edit your posts in this forum
You cannot delete your posts in this forum
You cannot vote in polls in this forum
You cannot attach files in this forum
You cannot download files in this forum