Today is a free download without charge Download

Второе восстание Спартака [10 серий из 10] (2013) SATRip

Reply to topic
 
Author
Message

UndegraundMen ®

Longevity: 8 years 9 months

Posts: 25145

Торрент-статистика

Post 04-Mar-2013 22:34

[Quote]

Второе восстание Спартака [10 серий из 10] (2013) SATRip- Русское название: Второе восстание Спартака
Выпущено: Россия
Год выпуска: 2013
Жанр: Драма, Приключения, Военный
Перевод: Оригинал (Русский)
Субтитры: Отсутствуют

Дата мировой премьеры: 9 февраля 2013
Режиссер: Василий Пичул
Актеры: Константин Крюков, Татьяна Арнтгольц, Кирилл Плетнев, Александр Лойе, Виктор Раков, Галина Польских, Александр Семчев, Александра Урсуляк, Даниил Спиваковский, Виктор Проскурин, Сергей Варчук, Роман Радов, Нияз Гаджиев, Алексей Солончев, Денис Липатов, Дмитрий Буренков, Алексей Эйбоженко (мл.), Виталий Абдулов, Александр Орав, Антон Ескин, Александр Поляк, Денис Константинов, Андрей Межулис, Оксана Гуляева, Александр Горелов (II), Екатерина Федотова, Максим Костромыкин, Дмитрий Кошелев, Максим Дромашко
Описание фильма:
Спартак Котляревский был русским летчиком, бомбившим Берлин в августе 1941-го. Но вместо Звезды Героя он получил тюремный срок. И теперь у Спартака, как у его тезки, римского гладиатора, две тысячи лет назад, остался единственный выход – восстание. Котляревский организует самый крупный бунт заключенных за всю историю советского режима. Наперекор судьбе Спартак вырывается на волю, чтобы вернуться к любимой...
Продолжительность: 10 х ~ 00:43:01 серия
Качество видео: SATRip
Видеокодек: Xvid
Битрейт видео: ~1497 Kbit/s
Размер кадра: 704 x 384
Аудиокодек: MP3, 2.0
Битрейт аудио: 128 Kbit/s

MediaInfo

Общее
Полное имя : D:\Торренты\ФИЛЬМЫ торента\Второе восстание Спартака. 2013. SATRip\Второе восстание Спартака.10.2013.SATRip.avi
Формат : AVI
Формат/Информация : Audio Video Interleave
Размер файла : 507 Мбайт
Продолжительность : 43 м.
Общий поток : 1635 Кбит/сек
Программа кодирования : VirtualDubMod 1.5.10.3 (build 2550/release)
Библиотека кодирования : VirtualDubMod build 2550/release
Видео
Идентификатор : 0
Формат : MPEG-4 Visual
Профиль формата : Advanced [email protected]
Параметр BVOP формата : 2
Параметр QPel формата : Нет
Параметр GMC формата : Без точки перехода
Параметр матрицы формата : Default (MPEG)
Идентификатор кодека : XVID
Идентификатор кодека/Подсказка : XviD
Продолжительность : 43 м.
Битрейт : 1497 Кбит/сек
Ширина : 704 пикс.
Высота : 384 пикс.
Соотношение сторон : 16:9
Частота кадров : 25,000 кадр/сек
Цветовое пространство : YUV
Подвыборка цветности : 4:2:0
Битовая глубина : 8 бит
Тип развёртки : Прогрессивная
Метод сжатия : С потерями
Бит/(Пиксели*Кадры) : 0.222
Размер потока : 465 Мбайт (92%)
Библиотека кодирования : XviD 65
Аудио
Идентификатор : 1
Формат : MPEG Audio
Версия формата : Version 1
Профиль формата : Layer 3
Режим : Joint stereo
Расширение режима : MS Stereo
Идентификатор кодека : 55
Идентификатор кодека/Подсказка : MP3
Продолжительность : 43 м.
Вид битрейта : Постоянный
Битрейт : 128 Кбит/сек
Каналы : 2 канала
Частота : 48,0 КГц
Метод сжатия : С потерями
Размер потока : 39,7 Мбайт (8%)
Выравнивание : Соединение по промежуткам
Продолжительность промежутка : 40 мс. (1,00 видеокадр)
Время предзагрузки промежутка : 504 ms
Библиотека кодирования : LAME3.90.3
Скриншоты:
         
         Время раздачи: 24/7 по возможности
Other forum [Profile] [PM]
Display posts from previous:    
Reply to topic

The time now is: Today 16:54

All times are GMT + 3 Hours



You cannot post new topics in this forum
You cannot reply to topics in this forum
You cannot edit your posts in this forum
You cannot delete your posts in this forum
You cannot vote in polls in this forum
You cannot attach files in this forum
You cannot download files in this forum