Today is a free download without charge Download

Принцип Хабарова / Заклятые друзья (1-16 серии из 16) (2013) DVB

Reply to topic
 
Author
Message

UndegraundMen ®

Longevity: 8 years 9 months

Posts: 25145

Торрент-статистика

Post 04-Mar-2013 22:34

[Quote]

Принцип Хабарова / Заклятые друзья (1-16 серии из 16) (2013) DVB- Оригинальное название: Принцип Хабарова / Заклятые друзья
Год выпуска: 2013
Страна: Россия / Студия "Панорама"
Жанр: детектив, криминал-
Премьера (РФ): 25 февраля 2013 (Россия 1)
Режиссер: Андрей Щербинин
Актеры: Александр Марушев, Даниил Страхов, Людмила Харитонова, Игорь Николаев, Екатерина Зорина, Александр Блок, Роман Грибков, Юлия Рудина, Михаил Батуев, Александра Мареева, Юлия Нижельская, Наталья Иохвидова, Серафима Низовская, Диана Дезмари, Руслан Кацагаджиев, Алина Кикеля, Данила Воропаев, Сергей Гарусов, Сергей Рублёв, Александр Овчинников, Андрей Бордухаев, Сергей Воробьёв
Описание фильма:
На улице недалеко от своего дома от руки наёмного убийцы погибает близкий друг и заместитель начальника отдельной оперативно-следственной группы ГУВД полковника Хабарова. Его смерть заставляет полковника отложить на будущее планы выхода на пенсию. Расследование убийства он вынужден начать вместе с новым подчинённым - майором Ершовым, которого неуживчивому полковнику навязывает руководство. Первые же совместные шаги полицейских показали, что сработаться им будет очень непросто. Опытный, уверенный в своих силах Ершов во всём привык полагаться на самого себя, но Хабаров, сам обладающий независимым характером, не станет спокойно мириться со своеволием подчинённого, а методы, которыми пользуется Ершов, иногда кажутся ему просто возмутительными. Тем не менее, со временем складывается своеобразный дуэт двух этих незаурядных детективов и, хотя трения между ними не утихают, каждое новое дело становится доказательством их высокого профессионализма-Продолжительность: серия ~ 00:43
Качество видео: DVB
Видеокодек: MPEG2
Битрейт видео: ~5340 kbps avg
Размер кадра: 720x576**768х576 (4:3)
Аудиокодек: MPEG1 Layer 2
Аудио: 48.0 kHz, 2 ch ~256 Kbps avg
Субтитры: отсутствуют
.

Media Info:

Формат : MPEG-PS
Размер файла : 3,43 Гбайт
Продолжительность : 1 ч. 26 м.
Режим общего битрейта : Переменный
Общий поток : 5710 Кбит/сек
Библиотека кодирования : (c) 1998-2012 Womble Multimedia, Inc. / MPEG Video Wizard DVD 5.0.1.100
Видео
Идентификатор : 224 (0xE0)
Формат : MPEG Video
Версия формата : Version 2
Профиль формата : [email protected]
Параметр BVOP формата : Да
Параметр матрицы формата : Выборочная
Параметр GOP формата : M=3, N=15
Продолжительность : 1 ч. 26 м.
Вид битрейта : Переменный
Битрейт : 5340 Кбит/сек
Максимальный битрейт : 15,0 Мбит/сек
Ширина : 720 пикселей
Высота : 576 пикселей
Соотношение сторон : 4:3
Частота кадров : 25,000 кадров/сек
Стандарт вещания : PAL
Цветовое пространство : YUV
Субдискретизация насыщенности : 4:2:0
Битовая глубина : 8 бит
Тип развёртки : Чересстрочная
Порядок развёртки : Верхнее поле первое
Метод сжатия : С потерями
Бит/(Пиксели*Кадры) : 0.515
TimeCode_FirstFrame : 00:00:00:00
TimeCode_Source : Group of pictures header
Размер потока : 3,21 Гбайт (94%)
Библиотека кодирования : (c) 1998-2012 Womble Multimedia, Inc. / MPEG Video Wizard DVD 5.0.1.100
Аудио
Идентификатор : 192 (0xC0)
Формат : MPEG Audio
Версия формата : Version 1
Профиль формата : Layer 2
Продолжительность : 1 ч. 26 м.
Вид битрейта : Постоянный
Битрейт : 256 Кбит/сек
Каналы : 2 канала
Частота : 48,0 КГц
Метод сжатия : С потерями
Задержка видео : -80 мс.
Размер потока : 158 Мбайт (4%)
Скриншоты:
         
         
[url=/forum/viewtopic.php?t=623178]Принцип Хабарова [16 серий из 16] (2013) SATRip[/url]
24/7
Other forum [Profile] [PM]
Display posts from previous:    
Reply to topic

The time now is: Today 18:05

All times are GMT + 3 Hours



You cannot post new topics in this forum
You cannot reply to topics in this forum
You cannot edit your posts in this forum
You cannot delete your posts in this forum
You cannot vote in polls in this forum
You cannot attach files in this forum
You cannot download files in this forum