Today is a free download without charge Download

Игра (1-20 серии из 20) (2011) DVB

Reply to topic
 
Author
Message

UndegraundMen ®

Longevity: 8 years 9 months

Posts: 25145

Торрент-статистика

Post 04-Mar-2013 22:34

[Quote]

Игра (1-20 серии из 20) (2011) DVB- Оригинальное название: Игра
Год выпуска: 2011
Страна: Россия / DIXI TV
Жанр: криминал, детектив-
Премьера (РФ): 22 мая 2011 (Украина, ТРК "Украина"), 18 февраля 2013 (НТВ)
Режиссер: Георгий Гаврилов, Сергей Лесогоров, Геннадий Иванов, Тимур Алпатов
Актеры: Прохор Дубравин, Павел Баршак, Мария Горбань, Наталья Левина, Дарья Повереннова, Спартак Сумченко, Владимир Фекленко, Игорь Теплов, Константин Спиркин, Антон Афанасьев, Вероника Амирханова, Андрей Лебедев, Елена Торяник, Иван Мамонов, Анжелика Кошевая, Федор Миренков, Андрис Лиелайс, Георгий Сегал, Рауль Ганеев, Алексей Герилович, Иосиф Райхельгауз, Михаил Хмуров, Лидия Кузнецова, Бабек Акбаров, Ян Воробьев, Владимир Шульга, Юрий Внуков, Евгений Аксёнов (II), Сергей Баровский, Анна Фурс, Елена Антипова, Андрей Бажин, Андрей Афанасьев, Евгений Кожевников, Владимир Яковлев (II), Семен Штейнберг, Николай Козак, Ольга Дибцева, Евгений Березовский, Дмитрий Филиппов, Алексей Кирсанов, Ирина Бероева, Николай Ильин (IV), Александр Загрудный, Алексей Аникин
Описание фильма:
Сериал расскажет о противостоянии двух невероятно сильных личностей: следователя ФСБ Белова и отчаянного бандита Смолина, которые, однажды столкнувшись, станут личными врагами на всю жизнь. Это будет захватывающий поединок между равновеликими фигурами, одного из которых ведут правильные и положительные чувства и эмоции, второго - самые низменные пороки и страсти.
От создателей телесериала "Глухарь"-Продолжительность: серия ~ 00:45
Качество видео: DVB
Видеокодек: MPEG2
Битрейт видео: ~5139 kbps avg
Размер кадра: 720x576**768х576 (4:3)
Аудиокодек: MPEG1 Layer 2
Аудио: 48.0 kHz, 2 ch ~192 Kbps avg
Субтитры: отсутствуют
.

Media Info:

Формат : MPEG-PS
Размер файла : 1,78 Гбайт
Продолжительность : 46 м.
Режим общего битрейта : Переменный
Общий поток : 5439 Кбит/сек
Библиотека кодирования : (c) 1998-2012 Womble Multimedia, Inc. / MPEG Video Wizard DVD 5.0.1.100
Видео
Идентификатор : 224 (0xE0)
Формат : MPEG Video
Версия формата : Version 2
Профиль формата : [email protected]
Параметр BVOP формата : Да
Параметр матрицы формата : Выборочная
Параметр GOP формата : Variable
Продолжительность : 46 м.
Вид битрейта : Переменный
Битрейт : 5139 Кбит/сек
Максимальный битрейт : 15,0 Мбит/сек
Ширина : 720 пикселей
Высота : 576 пикселей
Соотношение сторон : 4:3
Частота кадров : 25,000 кадров/сек
Стандарт вещания : PAL
Цветовое пространство : YUV
Субдискретизация насыщенности : 4:2:0
Битовая глубина : 8 бит
Тип развёртки : Чересстрочная
Порядок развёртки : Верхнее поле первое
Метод сжатия : С потерями
Бит/(Пиксели*Кадры) : 0.496
Размер потока : 1,68 Гбайт (94%)
Аудио
Идентификатор : 192 (0xC0)
Формат : MPEG Audio
Версия формата : Version 1
Профиль формата : Layer 2
Продолжительность : 46 м.
Вид битрейта : Постоянный
Битрейт : 192 Кбит/сек
Каналы : 2 канала
Частота : 48,0 КГц
Метод сжатия : С потерями
Размер потока : 64,5 Мбайт (4%)
Скриншоты:
         
         
[url=/forum/viewtopic.php?t=340532]Игра (1-20 серия из 20) (2011) SATRip[/url]
24/7
Other forum [Profile] [PM]
Display posts from previous:    
Reply to topic

The time now is: Today 05:05

All times are GMT + 3 Hours



You cannot post new topics in this forum
You cannot reply to topics in this forum
You cannot edit your posts in this forum
You cannot delete your posts in this forum
You cannot vote in polls in this forum
You cannot attach files in this forum
You cannot download files in this forum