Today is a free download without charge Download

А снег кружит [4 серии из 4] (2013) SATRip

Reply to topic
 
Author
Message

UndegraundMen ®

Longevity: 8 years 9 months

Posts: 25145

Торрент-статистика

Post 04-Mar-2013 22:33

[Quote]

А снег кружит [4 серии из 4] (2013) SATRip- Русское название: А снег кружит
Производство: Россия, Продюсерский центр "Фабула"
Год выпуска: 2013
Жанр: Драма
Перевод: Не требуется (Русский)

Дата российской премьеры: 2 марта 2013
Режиссер: Владимир Тумаев
Актеры: Юлия Кадушкевич, Сергей Загребнев, Вероника Пляшкевич, Виктор Балабанов, Евгения Жукович, Ольга Аксёнова-Кавалай
Описание фильма:
Казалось бы, жизнь Лены - девочки из провинции - удалась. Она сделала все, чтобы в свои неполные 30 лет стать известной телеведущей. У нее красивый обеспеченный муж, ее ценят и уважают. Но за этим благополучным фасадом скрывается глубоко несчастный человек. Потому что нельзя стать счастливой, отказавшись от настоящей любви и собственного ребенка в угоду карьере и славе. И вот теперь, чтобы найти себя прежнюю, ей необходимо вернуться назад, вновь завоевать любимого и стать настоящей матерью. А еще ей предстоит узнать правду, которую от нее скрывали столько лет…
Продолжительность: 4 х ~ 00:42:31 серия
Качество видео: SATRip
Видеокодек: DivX 5
Битрейт видео: ~1600 Kbit/s
Размер кадра: 704 х 400
Аудиокодек: MP3, 2.0
Битрейт аудио: 128 Kbit/s

MediaInfo

Общее
Полное имя : D:\Торренты\ФИЛЬМЫ торента\А снег кружит. 2013. SATRip\А снег кружит.01.avi
Формат : AVI
Формат/Информация : Audio Video Interleave
Размер файла : 528 Мбайт
Продолжительность : 42 м.
Общий поток : 1746 Кбит/сек
Видео
Идентификатор : 0
Формат : MPEG-4 Visual
Профиль формата : [email protected]
Параметр BVOP формата : Нет
Параметр QPel формата : Нет
Параметр GMC формата : Без точки перехода
Параметр матрицы формата : Default (H.263)
Идентификатор кодека : DX50
Идентификатор кодека/Подсказка : DivX 5
Продолжительность : 42 м.
Битрейт : 1600 Кбит/сек
Ширина : 704 пикс.
Высота : 400 пикс.
Соотношение сторон : 16:9
Частота кадров : 25,000 кадр/сек
Цветовое пространство : YUV
Подвыборка цветности : 4:2:0
Битовая глубина : 8 бит
Тип развёртки : Прогрессивная
Метод сжатия : С потерями
Бит/(Пиксели*Кадры) : 0.227
Размер потока : 484 Мбайт (92%)
Библиотека кодирования : XviD 1.2.1 (UTC 2008-12-04)
Аудио
Идентификатор : 1
Формат : MPEG Audio
Версия формата : Version 1
Профиль формата : Layer 3
Режим : Joint stereo
Расширение режима : MS Stereo
Идентификатор кодека : 55
Идентификатор кодека/Подсказка : MP3
Продолжительность : 42 м.
Вид битрейта : Постоянный
Битрейт : 128 Кбит/сек
Каналы : 2 канала
Частота : 48,0 КГц
Метод сжатия : С потерями
Размер потока : 38,7 Мбайт (7%)
Выравнивание : Соединение по промежуткам
Продолжительность промежутка : 24 мс. (0,60 видеокадр)
Библиотека кодирования : LAME3.98.2
Скриншоты:
           
Время раздачи: 24/7 по возможности
Other forum [Profile] [PM]
Display posts from previous:    
Reply to topic

The time now is: Today 23:59

All times are GMT + 3 Hours



You cannot post new topics in this forum
You cannot reply to topics in this forum
You cannot edit your posts in this forum
You cannot delete your posts in this forum
You cannot vote in polls in this forum
You cannot attach files in this forum
You cannot download files in this forum