Today is a free download without charge Download

Discovery: Kурс экстремального вождения 1 серия / Discovery: Extreme Driving Courses (2012) WEB-DLRip

Reply to topic
 
Author
Message

UndegraundMen ®

Longevity: 7 years 7 months

Posts: 25145

Торрент-статистика

Post 04-Mar-2013 22:33

[Quote]

Discovery: Kурс экстремального вождения (1 серия) / Discovery: Extreme Driving Courses (2012) WEB-DLRip- Русское название: Discovery: Kурс экстремального вождения
Оригинальное название: Discovery: Extreme Driving Courses
Режиссер / Телекомпания: Discovery Channel
Год выпуска: 2012
Жанр: Документальный
Описание:
В новой программе «Курс экстремального вождения» Грэг Мерфи, легендарный пилот австралийских туринговых гонок V8 Supercar, использует свой многолетний опыт, чтобы в режиме реального времени рассказать и показать, что происходит при выходе автомобиля из-под контроля. Мерфи охотно делится с автолюбителями своим профессиональными навыками и знаниями, позволяющими обезопасить себя на дороге. Вы узнаете, как выбраться из тонущего автомобиля и заноса, что делать, когда отказывают тормоза или прямо на полпути лопается шина, как развернуться на неожиданно крутом повороте и что необходимо делать при пожаре в машине. В исследовании дорожных перипетий вместе с Мерфи участвует чемпион Indy Car Скотт Диксон - настоящий эксперт по вождению в экстремальных условиях.
Сегодня в программе. Резкое торможение при безумной гонке. И лихачат не только мужчины, а и женщины. Скотт Диксон устроит карусель. А Мерфи-мобиль подвергнется удару на скорости 150 км/час. Пристегните ремни, скорость - главное в курсе экстремального вождения.
Продолжительность: 00:21:41
Перевод: Одноголосый закадровый, профессиональный
Видеокодек: Xvid
Битрейт видео: ~1201 Кбит/сек
Размер кадра: 848x480
Качество видео: WEB-DLRip
Аудиокодек: MP3, 2 канала
Битрейт аудио: 192 Кбит/сек
Скриншоты:
       

MediaInfo

Общее
Полное имя : H:\ДОКУМЕНТАЛКИ\Kурс экстремального вождения\Курс экстремального вождения - 1 серия.avi
Формат : AVI
Формат/Информация : Audio Video Interleave
Размер файла : 218 Мбайт
Продолжительность : 21 м.
Общий поток : 1406 Кбит/сек
Программа кодирования : Lavf51.12.1
Видео
Идентификатор : 0
Формат : xvid
Идентификатор кодека : xvid
Продолжительность : 21 м.
Битрейт : 1201 Кбит/сек
Ширина : 848 пикселей
Высота : 480 пикселей
Соотношение сторон : 16:9
Частота кадров : 25,000 кадров/сек
Бит/(Пиксели*Кадры) : 0.118
Размер потока : 186 Мбайт (85%)
Аудио
Идентификатор : 1
Формат : MPEG Audio
Версия формата : Version 1
Профиль формата : Layer 3
Режим : Joint stereo
Расширение режима : MS Stereo
Идентификатор кодека : 55
Идентификатор кодека/Подсказка : MP3
Продолжительность : 21 м.
Вид битрейта : Постоянный
Битрейт : 192 Кбит/сек
Каналы : 2 канала
Частота : 44,1 КГц
Метод сжатия : С потерями
Размер потока : 29,8 Мбайт (14%)
Выравнивание : Соединение по промежуткам
Продолжительность промежутка : 26 мс. (0,65 видеокадр)
Время раздачи: с 9:00 до 21:00 по МСК
Other forum [Profile] [PM]
Display posts from previous:    
Reply to topic

The time now is: Today 15:13

All times are GMT + 3 Hours



You cannot post new topics in this forum
You cannot reply to topics in this forum
You cannot edit your posts in this forum
You cannot delete your posts in this forum
You cannot vote in polls in this forum
You cannot attach files in this forum
You cannot download files in this forum