Today is a free download without charge Download

Катерина. Другая жизнь / Сезон: 4 Серии: 1-3 из 8 (Андрей Щербинин) [2012, мелодрама, DVB]

Reply to topic
 
Author
Message

Omen ®

Longevity: 9 years 1 month

Posts: 181086

Торрент-статистика

Post 05-Mar-2013 00:19

[Quote]

Катерина. Другая жизнь
Год выпуска: 2012
Производство: Студия "Панорама"
Жанр: мелодрама
Продолжительность: ~0:43:00 серия
Субтитры: отсутствуют
Режиссёр: Андрей Щербинин
В ролях: Ирина Розанова, Александр Блок, Алиса Седова, Сергей Маркеев, Сергей Лосев, Мария Валешная, Ирина Цветкова, Александр Кудренко, Светлана Смирнова, Сергей Уманов, Геннадий Смирнов, Виталий Салтыков, Владимир Крылов, Дарья Юргенс, Вадим Гущин, Юлия Морозова
Описание: Лидии Викторовне Гориной, ставшей матерью для двух приёмных детей, приходится столкнуться с новыми жизненными испытаниями. И на сей раз под ударом оказалась её главная надежда и опора - любимый супруг Борис Одинцов. Решив начать новое дело - строительство коттеджного посёлка на месте разрушенных бывшим мэром домов, Борис Сергеевич неожиданно разворошил осиное гнездо. Старый недоброжелатель Одинцова Щетинин с помощью своих высоких покровителей добивается смещения Бориса Сергеевича с поста директора и берёт контроль над фирмой в свои руки. Оказавшись на улице после ареста мужа, Горина начинает борьбу за свободу Одинцова и будущее свой семьи.
Релиз: -Все раздачи сериала / Сэмпл-Качество: DVB (Express MD1 at 80.0°E)
Формат: MPEG-PS
Видео кодек: MPEG2
Аудио кодек: MP2
Видео: MPEG 2, 720x576 (4:3), 25.000 fps, 5350 Kbps (0.516 bit/pixel)
Аудио: MP2, 48.0 KHz, 2 ch, 256 Kbps, CBR

MediaInfo

ОбщееПолное имя : L:\Раздачи\Катерина. Другая жизнь\Катерина. Другая жизнь.01.mpgФормат : MPEG-PSРазмер файла : 1,70 ГбайтПродолжительность : 42 м.Режим общего битрейта : ПеременныйОбщий поток : 5720 Кбит/секБиблиотека кодирования : (c) 1998-2012 Womble Multimedia, Inc. / MPEG Video Wizard DVD 5.0.1.100 (03/2011) / Sep 7 2012
ВидеоИдентификатор : 224 (0xE0)Формат : MPEG VideoВерсия формата : Version 2Профиль формата : [email protected]Параметр BVOP формата : ДаПараметр матрицы формата : ВыборочнаяПараметр GOP формата : M=3, N=15Продолжительность : 42 м.Вид битрейта : ПеременныйБитрейт : 5350 Кбит/секМаксимальный битрейт : 15,0 Мбит/секШирина : 720 пикселейВысота : 576 пикселейСоотношение сторон : 4:3Частота кадров : 25,000 кадров/секСтандарт вещания : PALЦветовое пространство : YUVСубдискретизация насыщенности : 4:2:0Битовая глубина : 8 битТип развёртки : ЧересстрочнаяПорядок развёртки : Верхнее поле первоеМетод сжатия : С потерямиБит/(Пиксели*Кадры) : 0.516TimeCode_FirstFrame : 00:00:00:00TimeCode_Source : Group of pictures headerРазмер потока : 1,59 Гбайт (94%)Библиотека кодирования : (c) 1998-2012 Womble Multimedia, Inc. / MPEG Video Wizard DVD 5.0.1.100 (03/2011) / Sep 7 2012
АудиоИдентификатор : 192 (0xC0)Формат : MPEG AudioВерсия формата : Version 1Профиль формата : Layer 2Продолжительность : 42 м.Вид битрейта : ПостоянныйБитрейт : 256 Кбит/секКаналы : 2 каналаЧастота : 48,0 КГцМетод сжатия : С потерямиРазмер потока : 77,7 Мбайт (4%)
Меню

Скриншоты


Внимание! Раздача ведётся путём добавления новых серий.

Внимание! Раздача ведётся путём добавления новых серий; при каждом добавлении создаётся новый торрент. Чтобы начать докачку новой серии, пользователям необходимо сделать следующее:
(1) остановить скачивание,
(2) удалить старый торрент у себя из клиента (старые серии удалять не надо),
(3) скачать новый торрент и запустить его у себя в клиенте вместо старого, при этом указать клиенту путь в старую папку куда и должно происходить скачивание новых серий.
Ваш клиент при этом должен произвести хеширование (проверку) старой папки (если не производит сам - помогите ему сделать это), и будет докачивать только те серии которых у вас ещё нет. Старые серии при этом не удаляются, а продолжают раздаваться!
Eсли вы уже удалили старые серии, то предотвратить повторную закачку старых серий можно, отжав галочку в соответствующий местах при запуске нового торрента. По возможности, желательно не удалять старые серии как можно дольше чтобы релизёр не столько продолжал раздавать старые серии, а смог сконцентрироваться на новых
Other forum [Profile] [PM]
Display posts from previous:    
Reply to topic

The time now is: Today 23:13

All times are GMT + 3 Hours



You cannot post new topics in this forum
You cannot reply to topics in this forum
You cannot edit your posts in this forum
You cannot delete your posts in this forum
You cannot vote in polls in this forum
You cannot attach files in this forum
You cannot download files in this forum