Today is a free download without charge Download

Река-вопрос / The River Why (Мэттью Льютуайлер / Matthew Leutwyler) [2010, США, драма, мелодрама, BDRip 1080p] MVO + 2xSub (Rus, Eng) + Original Eng

Reply to topic
 
Author
Message

Omen ®

Longevity: 8 years 5 months

Posts: 181087

Торрент-статистика

Post 05-Mar-2013 00:19

[Quote]

Река-вопрос / The River Why
Страна: США
Жанр: драма, мелодрама
Год выпуска: 2010
Продолжительность: 01:44:06
Перевод: Профессиональный (многоголосый закадровый)
Cубтитры: русские, английские [SDH]
Оригинальная аудиодорожка: английский
-
Режиссер: Мэттью Льютуайлер / Matthew Leutwyler
В ролях: Эмбер Хёрд, Зэк Гилфорд, Уильям Хёрт, Даллас Робертс, Кэтлин Куинлен, Уильям Дивэйн, Дрю Барриос, Гэбби Брукс, Киган Брукс, Лэндон Брукс
-
Описание: Река-вопрос это история человека, который уходит из дома, чтобы найти себя и блаженство рыбалки на берегу дикой реки. Прежде всего, это история любви человека к дикой природе и красивой женщине, которая приходит разделить ее с ним.


Тип релиза: BDRip 1080p
Контейнер: MKV
Видео: H264 / NTSC 16:9 / 1920x816 (2,35:1) / 9007 kbps / 23,976 fps / 0.240 bit/pixel / [email protected]
Аудио 1: Russian / AC3 / 48 kHz / 2 Ch / 192 kbps / 16 bit / MVO
Аудио 2: English / DTS / 48 kHz / 5.1 Ch / 1510 kbps / 24 bit / Original
Формат субтитров: softsub (SRT)
Навигация по главам: есть

Доп.инфо

"Отрихтовал" русские сабы на наличие ошибок, изготовка чаптеров.

MediaInfo

Общее
Уникальный идентификатор : 190745070055967630100301426866289177718 (0x8F802A0A17BD7B29AF0693FB0ABCF476)
Полное имя : D:\The River Why.2010.BDRip.1080p.mkv
Формат : Matroska
Версия формата : Version 4 / Version 2
Размер файла : 7,79 Гбайт
Продолжительность : 1 ч. 44 м.
Общий поток : 10,7 Мбит/сек
Дата кодирования : UTC 2013-03-04 19:17:03
Программа кодирования : mkvmerge v6.1.0 ('Old Devil') built on Mar 2 2013 14:32:37
Библиотека кодирования : libebml v1.3.0 + libmatroska v1.4.0
Видео
Идентификатор : 1
Формат : AVC
Формат/Информация : Advanced Video Codec
Профиль формата : [email protected]
Параметр CABAC формата : Да
Параметр ReFrames формата : 5 кадров
Идентификатор кодека : V_MPEG4/ISO/AVC
Продолжительность : 1 ч. 44 м.
Битрейт : 9007 Кбит/сек
Ширина : 1920 пикселей
Высота : 816 пикселей
Соотношение сторон : 2,35:1
Режим частоты кадров : Постоянный
Частота кадров : 23,976 кадра/сек
Цветовое пространство : YUV
Субдискретизация насыщенности : 4:2:0
Битовая глубина : 8 бит
Тип развёртки : Прогрессивная
Бит/(Пиксели*Кадры) : 0.240
Размер потока : 6,39 Гбайт (82%)
Библиотека кодирования : x264 core 119 r2106 07efeb4
Настройки программы : cabac=1 / ref=5 / deblock=1:0:0 / analyse=0x3:0x133 / me=umh / subme=7 / psy=1 / psy_rd=1.00:0.00 / mixed_ref=1 / me_range=16 / chroma_me=1 / trellis=1 / 8x8dct=1 / cqm=0 / deadzone=21,11 / fast_pskip=0 / chroma_qp_offset=-2 / threads=12 / sliced_threads=0 / nr=0 / decimate=1 / interlaced=0 / bluray_compat=0 / constrained_intra=0 / bframes=3 / b_pyramid=2 / b_adapt=2 / b_bias=0 / direct=3 / weightb=1 / open_gop=0 / weightp=2 / keyint=250 / keyint_min=23 / scenecut=40 / intra_refresh=0 / rc_lookahead=50 / rc=2pass / mbtree=1 / bitrate=9007 / ratetol=1.0 / qcomp=0.60 / qpmin=0 / qpmax=69 / qpstep=4 / cplxblur=20.0 / qblur=0.5 / ip_ratio=1.40 / aq=1:1.00
Язык : English
Default : Да
Forced : Нет
Аудио #1
Идентификатор : 2
Формат : AC-3
Формат/Информация : Audio Coding 3
Расширение режима : CM (complete main)
Параметр Endianness формата : Big
Идентификатор кодека : A_AC3
Продолжительность : 1 ч. 44 м.
Вид битрейта : Постоянный
Битрейт : 192 Кбит/сек
Каналы : 2 канала
Расположение каналов : Front: L R
Частота : 48,0 КГц
Битовая глубина : 16 бит
Метод сжатия : С потерями
Размер потока : 143 Мбайт (2%)
Заголовок : MVO
Язык : Russian
Default : Да
Forced : Нет
Аудио #2
Идентификатор : 3
Формат : DTS
Формат/Информация : Digital Theater Systems
Идентификатор кодека : A_DTS
Продолжительность : 1 ч. 44 м.
Вид битрейта : Постоянный
Битрейт : 1510 Кбит/сек
Каналы : 6 каналов
Расположение каналов : Front: L C R, Side: L R, LFE
Частота : 48,0 КГц
Битовая глубина : 24 бит
Метод сжатия : С потерями
Размер потока : 1,10 Гбайт (14%)
Заголовок : Original
Язык : English
Default : Нет
Forced : Нет
Текст #1
Идентификатор : 4
Формат : UTF-8
Идентификатор кодека : S_TEXT/UTF8
Идентификатор кодека/Информация : UTF-8 Plain Text
Заголовок : RUS
Язык : Russian
Default : Нет
Forced : Нет
Текст #2
Идентификатор : 5
Формат : UTF-8
Идентификатор кодека : S_TEXT/UTF8
Идентификатор кодека/Информация : UTF-8 Plain Text
Заголовок : Original [SDH]
Язык : English
Default : Нет
Forced : Нет
Меню
00:00:00.000 : en:CHAPTER01
00:04:27.899 : en:CHAPTER02
00:09:41.113 : en:CHAPTER03
00:12:46.877 : en:CHAPTER04
00:18:40.246 : en:CHAPTER05
00:29:14.323 : en:CHAPTER06
00:33:36.475 : en:CHAPTER07
00:50:05.019 : en:CHAPTER08
01:00:11.549 : en:CHAPTER09
01:07:13.905 : en:CHAPTER10
01:11:50.224 : en:CHAPTER11
01:16:40.779 : en:CHAPTER12
01:23:02.641 : en:CHAPTER13
01:27:29.440 : en:CHAPTER14
01:33:17.742 : en:CHAPTER15
01:38:43.112 : en:CHAPTER16
Other forum [Profile] [PM]
Display posts from previous:    
Reply to topic

The time now is: Today 12:15

All times are GMT + 3 Hours



You cannot post new topics in this forum
You cannot reply to topics in this forum
You cannot edit your posts in this forum
You cannot delete your posts in this forum
You cannot vote in polls in this forum
You cannot attach files in this forum
You cannot download files in this forum