Today is a free download without charge Download

Василиса Микулишна (Роман Давыдов) [1975, Рисованный мультфильм, SATRip]

Reply to topic
 
Author
Message

Omen ®

Longevity: 7 years 11 months

Posts: 181087

Торрент-статистика

Post 05-Mar-2013 00:19

[Quote]

Василиса Микулишна
Страна: СССР
Жанр: Рисованный мультфильм
Продолжительность: 00:17:38
Год выпуска: 1975
Русские субтитры: нет
Режиссёр: Роман Давыдов
Роли озвучивали: Владимир Басов (Князь Киевский), Анатолий Васильев (Ставр Годинович), Анна Каменкова (Василиса Микулишна).
Описание: По мотивам русских былин.
О том, как Василиса Микулишна, переодевшись послом Золотой Орды, спасла своего мужа - черниговского князя Ставра Годиновича из плена в Киеве...
Доп. информация:
сценарист: Виктория Токарева
художник-постановщик Виктор Никитин
xудожники: Николай Куколев, В. Харитонова, В. Максимович
xудожники-мультипликаторы: Виктор Лихачев, Владимир Шевченко, Олег Сафронов, Федор Елдинов, Виталий Бобров, Олег Комаров, Александр Мазаев, Владимир Зарубин
оператор: Борис Котов
композитор: В. Кикта
звукорежиссёр Георгий Мартынюк
редактор Аркадий Снесарев
монтажёр Любовь Георгиева
Исходник для рипа любезно представлен SLuMeP
Качество: SATRip
Формат: AVI
Видео: 704x528 (1.33:1), 25 fps, XviD build 65 ~2100 kbps avg, 0.23 bit/pixel
Аудио: 48 kHz, AC3 Dolby Digital, 1/0 (C) ch, ~192.00 kbps avg
Субтитры: нет

Подробные технические данные

Format : AVIFormat/Info : Audio Video InterleaveFile size : 291 MiBDuration : 17mn 38sOverall bit rate : 2 302 KbpsWriting application : VirtualDubModRus 1.5.10.2 (build 2542/release)Copyright : Rutracker.orgComment : DVDRip by dvdss
VideoID : 0Format : MPEG-4 VisualFormat profile : Advanced [email protected] settings, BVOP : 2Format settings, QPel : NoFormat settings, GMC : No warppointsFormat settings, Matrix : CustomCodec ID : XVIDCodec ID/Hint : XviDDuration : 17mn 38sBit rate : 2 100 KbpsWidth : 704 pixelsHeight : 528 pixelsDisplay aspect ratio : 5:4Original display aspect ratio : 4:3Frame rate : 25.000 fpsColor space : YUVChroma subsampling : 4:2:0Bit depth : 8 bitsScan type : ProgressiveCompression mode : LossyBits/(Pixel*Frame) : 0.226Stream size : 265 MiB (91%)Writing library : XviD 65
AudioID : 1Format : AC-3Format/Info : Audio Coding 3Mode extension : CM (complete main)Format settings, Endianness : BigCodec ID : 2000Duration : 17mn 38sBit rate mode : ConstantBit rate : 192 KbpsChannel(s) : 1 channelChannel positions : Front: CSampling rate : 48.0 KHzBit depth : 16 bitsCompression mode : LossyStream size : 24.2 MiB (8%)Alignment : Split accross interleavesInterleave, duration : 40 ms (1.00 video frame)Interleave, preload duration : 500 ms

Скриншоты

Other forum [Profile] [PM]
Similar theme
Forum Topic Author Torrent Replies Last Post
./templates/default/images/folder_dl.gif Фильмы 2011-2020 Фиксики против кработов (Василий Бедошвили, Олег Ужинов, Иван Пшонкин) [2019 г., приключения, музыка, мультфильм, WEB-DLRip] kilmister777
1 | 0

0 | 679

3

2020-02-05 13:57
kilmister777 Latest
Display posts from previous:    
Reply to topic

The time now is: Today 02:29

All times are GMT + 3 Hours



You cannot post new topics in this forum
You cannot reply to topics in this forum
You cannot edit your posts in this forum
You cannot delete your posts in this forum
You cannot vote in polls in this forum
You cannot attach files in this forum
You cannot download files in this forum