Today is a free download without charge Download

Неуловимые / Red Dawn ( Дэн Брэдли) (2012, Боевик ) [720p] BDRip

Reply to topic
 
Author
Message

Витек1 ®

Gender:

Longevity: 8 years 3 months

Posts: 451

Location: Житомир

Торрент-статистика

Post 04-Mar-2013 23:06

[Quote]

Неуловимые / Red Dawn «Не отступать и не сдаваться»- Русское название: Неуловимые
Оригинальное название: Red Dawn
Год выпуска: 2012
Производство: США / FilmDistrict , Contrafilm , Metro-Goldwyn-Mayer (MGM)
Жанр: Боевик
Перевод: Профессиональный (многоголосый, закадровый) - Baibako
Озвучка: Татьяна Оболевич, Алексей Кузнецов, Артемий Мирон и Виталий Ткаченко
Субтитры: Вшитые отключаемые
Язык субтитров: Английский
Дополнительно: Сохранены оригинальные чаптеры как на Blu-Ray.
Дата мировой премьеры: 27 сентября 2012
Дата российской премьеры: 14 марта 2013, «Вольга»
Режиссер: Дэн Брэдли
Продюсер: Бо Флинн, Трип Винсон, Кевин Халлоран
Актеры: Крис Хемсворт, Джош Пек, Джош Хатчерсон, Эдрианн Палики, Изабель Лукас, Джеффри Дин Морган, Коннор Круз, Эдвин Ходж, Бретт Каллен, Алисса Диаз
Описание фильма:
Недалекое будущее. Новый тип оружия сделал даже крупнейшие сверхдержавы беспомощными перед массированным вторжением войск противника. Теперь война пришла в каждый дом. Восемь обычных американских парней и девушек решают не сдаваться без боя. Они организовывают отряд сопротивления «Росомахи». Их миссия — создавать хаос. От их смекалки и силы духа будет зависеть, есть ли у мира шанс пережить красный рассвет Третьей Мировой Войны

Продолжительность: 01:33:21
Качество видео: BDRip
Видеокодек: MPEG-4 AVC/H.264
Битрейт видео: ~5981 Kbit/s
Размер кадра: 1280 x 534
Aудио #1: AC3, 48,0 КHz, 5.1, 384 Kbit/s - Русский
Aудио #2: DTS, 48,0 КHz, 5.1, 1510 Kbit/s - Aнглийский

MediaInfo

Общее
Полное имя : D:\Торренты\Неуловимые.2012.BDRip.720p.mkv
Формат : Matroska
Размер файла : 5,24 Гбайт
Продолжительность : 1 ч. 33 м.
Общий поток : 8034 Кбит/сек
Дата кодирования : UTC 2013-03-04 16:05:32
Программа кодирования : mkvmerge v5.2.0 ('I can't explain')
Библиотека кодирования : libebml v1.2.3 + libmatroska v1.3.0
Видео
Идентификатор : 1
Формат : AVC
Формат/Информация : Advanced Video Codec
Профиль формата : [url=mailto:[email protected]][email protected][/url]
Параметр CABAC формата : Да
Параметр ReFrames формата : 11 кадров
Идентификатор кодека : V_MPEG4/ISO/AVC
Продолжительность : 1 ч. 33 м.
Битрейт : 5981 Кбит/сек
Ширина : 1280 пикс.
Высота : 534 пикс.
Соотношение сторон : 2,35:1
Частота кадров : 23,976 кадр/сек
Цветовое пространство : YUV
Подвыборка цветности : 4:2:0
Битовая глубина : 8 бит
Тип развёртки : Прогрессивная
Бит/(Пиксели*Кадры) : 0.365
Размер потока : 3,90 Гбайт (74%)
Заголовок : DON by LoRdScAb
Библиотека кодирования : x264 core 129 r2245 bc13772
Настройки программы : cabac=1 / ref=11 / deblock=1:-3:-3 / analyse=0x3:0x133 / me=umh / subme=10 / psy=1 / psy_rd=1.10:0.00 / mixed_ref=1 / me_range=24 / chroma_me=1 / trellis=2 / 8x8dct=1 / cqm=0 / deadzone=21,11 / fast_pskip=0 / chroma_qp_offset=-2 / threads=12 / lookahead_threads=2 / sliced_threads=0 / nr=0 / decimate=0 / interlaced=0 / bluray_compat=0 / constrained_intra=0 / bframes=8 / b_pyramid=2 / b_adapt=2 / b_bias=0 / direct=3 / weightb=1 / open_gop=0 / weightp=2 / keyint=240 / keyint_min=23 / scenecut=40 / intra_refresh=0 / rc_lookahead=60 / rc=crf / mbtree=0 / crf=16.7 / qcomp=0.75 / qpmin=0 / qpmax=69 / qpstep=4 / vbv_maxrate=50000 / vbv_bufsize=62500 / crf_max=0.0 / nal_hrd=none / ip_ratio=1.30 / pb_ratio=1.25 / aq=1:0.70
Язык : English
Аудио #1
Идентификатор : 2
Формат : AC-3
Формат/Информация : Audio Coding 3
Расширение режима : CM (complete main)
Идентификатор кодека : A_AC3
Продолжительность : 1 ч. 33 м.
Вид битрейта : Постоянный
Битрейт : 384 Кбит/сек
Каналы : 6 каналов
Расположение каналов : Front: L C R, Side: L R, LFE
Частота : 48,0 КГц
Битовая глубина : 16 бит
Метод сжатия : С потерями
Размер потока : 256 Мбайт (5%)
Заголовок : DD 5.1 @ 384 kbps - MVO, BaibaKo
Язык : Russian
Аудио #2
Идентификатор : 3
Формат : DTS
Формат/Информация : Digital Theater Systems
Идентификатор кодека : A_DTS
Продолжительность : 1 ч. 33 м.
Вид битрейта : Постоянный
Битрейт : 1510 Кбит/сек
Каналы : 6 каналов
Расположение каналов : Front: L C R, Side: L R, LFE
Частота : 48,0 КГц
Битовая глубина : 24 бит
Метод сжатия : С потерями
Размер потока : 1008 Мбайт (19%)
Язык : English
Текст
Идентификатор : 4
Формат : UTF-8
Идентификатор кодека : S_TEXT/UTF8
Идентификатор кодека/Информация : UTF-8 Plain Text
Язык : English
Меню
00:00:00.000 : :00:00:00.000
00:02:54.383 : :00:02:54.383
00:05:01.384 : :00:05:01.384
00:07:54.474 : :00:07:54.474
00:10:24.833 : :00:10:24.833
00:16:08.217 : :00:16:08.217
00:18:55.551 : :00:18:55.551
00:21:32.583 : :00:21:32.583
00:23:02.798 : :00:23:02.798
00:27:06.667 : :00:27:06.667
00:31:16.833 : :00:31:16.833
00:36:29.396 : :00:36:29.396
00:41:27.985 : :00:41:27.985
00:43:40.743 : :00:43:40.743
00:50:37.618 : :00:50:37.618
00:53:56.442 : :00:53:56.442
00:57:04.171 : :00:57:04.171
00:59:06.918 : :00:59:06.918
01:03:11.454 : :01:03:11.454
01:07:17.075 : :01:07:17.075
01:09:55.858 : :01:09:55.858
01:11:51.098 : :01:11:51.098
01:15:40.911 : :01:15:40.911
01:18:19.904 : :01:18:19.904
01:20:55.809 : :01:20:55.809
01:22:55.262 : :01:22:55.262
01:25:58.695 : :01:25:58.695
01:28:26.301 : :01:28:26.301

Скриншоты

Скриншоты:
           

_________________
Скачал сам, дай скачать другому!!!Не забудь сказать -
Other forum [Profile] [PM]
Display posts from previous:    
Reply to topic

The time now is: Today 05:28

All times are GMT + 3 Hours



You cannot post new topics in this forum
You cannot reply to topics in this forum
You cannot edit your posts in this forum
You cannot delete your posts in this forum
You cannot vote in polls in this forum
You cannot attach files in this forum
You cannot download files in this forum