Today is a free download without charge Download

Дело следователя Никитина (Ловушка) / Сезон: Серии: 01-02 из 08 (Валерий Усков, Владимир Краснопольский) [2012, Детектив, драма, HDTV 1080i]

Reply to topic
 
Author
Message

Omen ®

Longevity: 9 years

Posts: 181086

Торрент-статистика

Post 04-Mar-2013 20:16

[Quote]

Дело следователя Никитина (Ловушка)
Год выпуска: 2012
Производство: Стори Фильм
Жанр: Детектив, драма
Продолжительность: ~ 00:45:00
Субтитры: Отсутствуют
Режиссёр: Валерий Усков, Владимир Краснопольский
В ролях: Анатолий Руденко, Ольга Дибцева, Александр Волков, Дмитрий Янышевский, Александр Чернявский, Станислав Эрклиевский, Марина Блейк, Ольга Родина, Михаил Горевой, Тимофей Трибунцев, Юлия Маврина и другие.
Описание: 1935 год. Молодых следователей Никитина, Россомахина и Бурлакова направляют расследовать серию нераскрытых московским уголовным розыском преступлений. Среди них дело неуловимого насильника и убийцы по кличке Упырь, жертвами которого становятся девушки.
Сэмпл: http://multi-up.com/838628
Доп. информация: Релиз -

Рип чистый. Без посторонних надписей. Выкладывается как есть.
Качество: HDTV 1080i
Контейнер: TS
Видео кодек: AVC
Аудио кодек: AC3
Видео: 1920x1080 (16:9) 25.000 fps 7 852 Kbps, 0.151 bit/pixel
Аудио: MPEG Audio 48000Hz stereo 192 Кбит/сек

Скриншоты


MI

GeneralID : 1 (0x1)Complete name : N:\ВЫКЛАДКА\HDTV\Сериалы\Дело следователя Никитина (2012, Детектив, Драма, HDTV) (MYDIMKA)\01 серия.tsFormat : MPEG-TSFile size : 2.59 GiBDuration : 43mn 58sOverall bit rate mode : VariableOverall bit rate : 8 443 Kbps
VideoID : 2911 (0xB5F)Menu ID : 1 (0x1)Format : AVCFormat/Info : Advanced Video CodecFormat profile : [email protected] settings, CABAC : YesFormat settings, ReFrames : 4 framesFormat settings, GOP : M=3, N=30Codec ID : 27Duration : 43mn 58sBit rate : 7 832 KbpsWidth : 1 920 pixelsHeight : 1 080 pixelsDisplay aspect ratio : 16:9Frame rate : 25.000 fpsColor space : YUVChroma subsampling : 4:2:0Bit depth : 8 bitsScan type : MBAFFBits/(Pixel*Frame) : 0.151Stream size : 2.41 GiB (93%)
AudioID : 2912 (0xB60)Menu ID : 1 (0x1)Format : MPEG AudioFormat version : Version 1Format profile : Layer 2Codec ID : 3Duration : 43mn 58sBit rate mode : ConstantBit rate : 192 KbpsChannel(s) : 2 channelsSampling rate : 48.0 KHzCompression mode : LossyStream size : 60.4 MiB (2%)Language : Russian

Внимание! Раздача ведётся путём добавления новых выпусков

Внимание! Раздача ведётся путём добавления новых выпусков; при каждом добавлении создётся новый торрент. Чтобы начать докачку нового выпуска, пользователям необходимо сделать следующее:
(1) остановить скачивание,
(2) удалить старый торрент у себя из клиента (старые выпуски удалять не надо),
(3) скачать новый торрент и запустить его у себя в клиенте вместо старого, при этом указать клиенту путь в старую папку куда и должно происходить скачивание новых выпусков.
Ваш клиент при этом должен произвести хеширование (проверку) старой папки (если не производит сам - помогите ему сделать это), и будет докачивать только те выпуски которых у вас ещё нет. Старые выпуски при этом не удаляются, а продолжают раздаваться!
Eсли вы уже удалили старые выпуски, то предотвратить повторную закачку старых выпусков можно, отжав галочку в соответсвующих местах при запуске нового торрента. По возможности, желательно не удалять старые выпуски как можно дольше чтобы релизёр не столько продолжал раздавать старые выпуски, а смог сконцентрироваться на новых.
Other forum [Profile] [PM]
Display posts from previous:    
Reply to topic

The time now is: Today 18:30

All times are GMT + 3 Hours



You cannot post new topics in this forum
You cannot reply to topics in this forum
You cannot edit your posts in this forum
You cannot delete your posts in this forum
You cannot vote in polls in this forum
You cannot attach files in this forum
You cannot download files in this forum