Today is a free download without charge Download

Похождения Чичикова: Ноздрёв (Борис Степанцев) [1974, Кукольная анимация, DVB]

Reply to topic
 
Author
Message

Omen ®

Longevity: 7 years 11 months

Posts: 181087

Торрент-статистика

Post 04-Mar-2013 20:16

[Quote]

Похождения Чичикова: Ноздрёв
Жанр: Кукольная анимация
Год выпуска: 1974
Продолжительность: 00:15:35
Режиссёр: Борис Степанцев
Описание: По роману Н.В. Гоголя «Мёртвые души».
1. Чичиков в гостях у помещика Ноздрёва; хозяин со взрывным темпераментом, лукав и хитёр.
Доп. информация:

Релиз спутникового канала: "Детский мир"
Качество видео: DVB
Формат видео: MPEG-PS
Видео: MPEG2 Video, 704x576, 25 fps, 1900 kbps
Аудио: MPEG Audio, 2 сh, 48 kHz, 192 kbps

MediaInfo

General
Complete name : O:\Похождения Чичикова. Ноздрев. (1974)_DVB by SLuMeP.mpg
Format : MPEG-PS
File size : 235 MiB
Duration : 15mn 35s
Overall bit rate : 2 102 Kbps
Video
ID : 224 (0xE0)
Format : MPEG Video
Format version : Version 2
Format profile : [email protected]
Format settings, BVOP : No
Format settings, Matrix : Default
Format settings, GOP : M=1, N=39
Duration : 15mn 35s
Bit rate mode : Variable
Bit rate : 1 868 Kbps
Nominal bit rate : 5 000 Kbps
Width : 704 pixels
Height : 576 pixels
Display aspect ratio : 4:3
Frame rate : 25.000 fps
Standard : PAL
Color space : YUV
Chroma subsampling : 4:2:0
Bit depth : 8 bits
Scan type : Interlaced
Scan order : Top Field First
Bits/(Pixel*Frame) : 0.184
Stream size : 208 MiB (89%)
Audio
ID : 192 (0xC0)
Format : MPEG Audio
Format version : Version 1
Format profile : Layer 2
Duration : 15mn 35s
Bit rate mode : Constant
Bit rate : 192 Kbps
Channel(s) : 2 channels
Sampling rate : 48.0 KHz
Stream size : 21.4 MiB (9%)

Скриншоты

Other forum [Profile] [PM]
Display posts from previous:    
Reply to topic

The time now is: Today 04:18

All times are GMT + 3 Hours



You cannot post new topics in this forum
You cannot reply to topics in this forum
You cannot edit your posts in this forum
You cannot delete your posts in this forum
You cannot vote in polls in this forum
You cannot attach files in this forum
You cannot download files in this forum