Today is a free download without charge Download

Чуффык (Леонид Каюков) [1993, Мультфильм, DVB]

Reply to topic
 
Author
Message

Omen ®

Longevity: 7 years 11 months

Posts: 181087

Торрент-статистика

Post 04-Mar-2013 20:16

[Quote]

Чуффык-Страна: Россия
Жанр: Мультфильм
Продолжительность: 00:09:34
Год выпуска: 1993
Русские субтитры: нет-Режиссёр: Леонид Каюков
Роли озвучивали: Л. Румянова Г. Вицин Л. Дуров Л. Куравлев-Описание: По мотивам сказки Евгения Чарушина про охотника, высказавшего перед сном в новогоднюю ночь пожелание стать маленьким-маленьким и оказаться в лесу, чтобы получше все разузнать о жизни лесных обитателей- -Качество: DVB
Формат: TS
Видео: 720x576 (4:3) @ 786x576, 25.000 fps, AVC, ~3083 Kbps, 0.297 bits/pixel
Аудио: 48.0 KHz, MPEG-1 Audio layer 2, 2 ch, 256 Kbps

MediaInfo

GeneralID : 1 (0x1)Complete name : Чуффык.1993.CTC-4.tsFormat : MPEG-TSFile size : 241 MiBDuration : 9mn 34sOverall bit rate mode : VariableOverall bit rate : 3 516 Kbps
VideoID : 1250 (0x4E2)Menu ID : 1 (0x1)Format : AVCFormat/Info : Advanced Video CodecFormat profile : [email protected] settings, CABAC : YesFormat settings, ReFrames : 3 framesCodec ID : 27Duration : 9mn 34sBit rate : 3 083 KbpsWidth : 720 pixelsHeight : 576 pixelsDisplay aspect ratio : 4:3Frame rate : 25.000 fpsStandard : ComponentColor space : YUVChroma subsampling : 4:2:0Bit depth : 8 bitsScan type : InterlacedScan order : Top Field FirstBits/(Pixel*Frame) : 0.297Stream size : 211 MiB (88%)Color primaries : BT.601 PALTransfer characteristics : BT.470 System B, BT.470 System GMatrix coefficients : BT.601
AudioID : 2250 (0x8CA)Menu ID : 1 (0x1)Format : MPEG AudioFormat version : Version 1Format profile : Layer 2Codec ID : 3Duration : 9mn 33sBit rate mode : ConstantBit rate : 256 KbpsChannel(s) : 2 channelsSampling rate : 48.0 KHzCompression mode : LossyStream size : 17.5 MiB (7%)

Скриншоты

Сравнение с DVD

http:///*spam*//forum/viewtopic.php?t=2824980
http://screenshotcomparison.com/comparison/11039
На DVD накручена цветность и подавлен шум, несколько утеряна детализация.
Other forum [Profile] [PM]
Display posts from previous:    
Reply to topic

The time now is: Today 09:48

All times are GMT + 3 Hours



You cannot post new topics in this forum
You cannot reply to topics in this forum
You cannot edit your posts in this forum
You cannot delete your posts in this forum
You cannot vote in polls in this forum
You cannot attach files in this forum
You cannot download files in this forum