Today is a free download without charge Download

Ну, погоди! 18-й выпуск (Владимир Тарасов, Вячеслав Котеночкин) [1993, мультфильм, комедия, семейный, DVB]

Reply to topic
 
Author
Message

Omen ®

Longevity: 7 years 11 months

Posts: 181087

Торрент-статистика

Post 04-Mar-2013 20:16

[Quote]

Ну, погоди! 18-й выпуск- Страна: Россия
Жанр: мультфильм, комедия, семейный
Продолжительность: 00:10:18
Год выпуска: 1993
Русские субтитры: нет-Режиссёр: Владимир Тарасов, Вячеслав Котеночкин
Роли озвучивали: Анатолий Папанов (Волк), Клара Румянова (Заяц).-Описание: Веселые приключения неразлучной парочки — хулигана Волка и смышленого Зайца. Любимые с детства сцены погонь, ссор и примирений, шутки и мелодии.
Выпуск посвящен памяти Анатолия Дмитриевича Папанова.- -Качество: DVB
Формат: MPG
Видео: 720x576 (4:3), 25.000 fps, MPEG-2 Video, ~3573 Kbps, 0.345 bits/pixel
Аудио: 48.0 KHz, MPEG-1 Audio layer 2, 2 ch, 256 Kbps
Субтитры: отсутствуют

Подробные технические данные

GeneralComplete name : Ну, погоди. 18-й выпуск.СТС+7.mpgFormat : MPEG-PSFile size : 288 MiBDuration : 10mn 18sOverall bit rate mode : VariableOverall bit rate : 3 906 Kbps
VideoID : 224 (0xE0)Format : MPEG VideoFormat version : Version 2Format profile : [email protected] settings, BVOP : YesFormat settings, Matrix : CustomFormat settings, GOP : VariableDuration : 10mn 18sBit rate mode : VariableBit rate : 3 573 KbpsMaximum bit rate : 15.0 MbpsWidth : 720 pixelsHeight : 576 pixelsDisplay aspect ratio : 4:3Frame rate : 25.000 fpsStandard : PALColor space : YUVChroma subsampling : 4:2:0Bit depth : 8 bitsScan type : InterlacedScan order : Top Field FirstCompression mode : LossyBits/(Pixel*Frame) : 0.345Time code of first frame : 00:00:00:00Time code source : Group of pictures headerStream size : 264 MiB (91%)
AudioID : 192 (0xC0)Format : MPEG AudioFormat version : Version 1Format profile : Layer 2Duration : 10mn 18sBit rate mode : ConstantBit rate : 256 KbpsChannel(s) : 2 channelsSampling rate : 48.0 KHzCompression mode : LossyStream size : 18.9 MiB (7%)

Скриншоты

Other forum [Profile] [PM]
Display posts from previous:    
Reply to topic

The time now is: Today 08:42

All times are GMT + 3 Hours



You cannot post new topics in this forum
You cannot reply to topics in this forum
You cannot edit your posts in this forum
You cannot delete your posts in this forum
You cannot vote in polls in this forum
You cannot attach files in this forum
You cannot download files in this forum