Today is a free download without charge Download

Сказки старого пианино. Роберт Шуман. Письма (Ирина Марголина, Елена Петкевич) [2009, мультфильм, DVB]

Reply to topic
 
Author
Message

Omen ®

Longevity: 8 years 11 months

Posts: 181086

Торрент-статистика

Post 04-Mar-2013 20:16

[Quote]

Сказки старого пианино. Роберт Шуман. Письма- Страна: Россия
Жанр: мультфильм
Продолжительность: 00:10:33
Год выпуска: 2009
Русские субтитры: нет-Режиссёр: Ирина Марголина, Елена Петкевич
Описание: Анимационный фильм о великом немецком композиторе Роберте Шумане.- -Качество: DVB
Формат: MPG
Видео: 704x576 (4:3), 25.000 fps, MPEG-2 Video, ~2743 Kbps, 0.271 bits/pixel
Аудио: 48.0 KHz, MPEG-1 Audio layer 2, 2 ch, 192 Kbps
Субтитры: отсутствуют

MedaInfo

GeneralComplete name : Сказки старого пианино. Роберт Шуман. Письма.mpgFormat : MPEG-PSFile size : 226 MiBDuration : 10mn 33sOverall bit rate mode : VariableOverall bit rate : 2 994 Kbps
VideoID : 224 (0xE0)Format : MPEG VideoFormat version : Version 2Format profile : [email protected] settings, BVOP : YesFormat settings, Matrix : CustomFormat settings, GOP : M=3, N=24Duration : 10mn 33sBit rate mode : VariableBit rate : 2 743 KbpsMaximum bit rate : 15.0 MbpsWidth : 704 pixelsHeight : 576 pixelsDisplay aspect ratio : 4:3Frame rate : 25.000 fpsStandard : PALColor space : YUVChroma subsampling : 4:2:0Bit depth : 8 bitsCompression mode : LossyBits/(Pixel*Frame) : 0.271Time code of first frame : 00:00:00:00Time code source : Group of pictures headerStream size : 207 MiB (92%)
AudioID : 192 (0xC0)Format : MPEG AudioFormat version : Version 1Format profile : Layer 2Duration : 10mn 33sBit rate mode : ConstantBit rate : 192 KbpsChannel(s) : 2 channelsSampling rate : 48.0 KHzCompression mode : LossyStream size : 14.5 MiB (6%)
Other forum [Profile] [PM]
Display posts from previous:    
Reply to topic

The time now is: Today 13:38

All times are GMT + 3 Hours



You cannot post new topics in this forum
You cannot reply to topics in this forum
You cannot edit your posts in this forum
You cannot delete your posts in this forum
You cannot vote in polls in this forum
You cannot attach files in this forum
You cannot download files in this forum