Today is a free download without charge Download

Человек и его птица (Анатолий Солин) [1975, мультфильм для взрослых, DVB]

Reply to topic
 
Author
Message

Omen ®

Longevity: 7 years 11 months

Posts: 181087

Торрент-статистика

Post 04-Mar-2013 20:16

[Quote]

Человек и его птица- Страна: СССР / ТО "Экран"
Жанр: мультфильм для взрослых
Продолжительность: 00:10:11
Год выпуска: 1975
Русские субтитры: нет-Режиссёр: Анатолий Солин
Описание: Об извечно нелегкой судьбе простого человека. Для взрослых- -Качество: DVB
Формат: MPG
Видео: 720x576 (4:3), 25.000 fps, MPEG-2 Video, ~2736 Kbps, 0.264 bits/pixel
Аудио: 48.0 KHz, MPEG-1 Audio layer 2, 2 ch, 192 Kbps
Субтитры: отсутствуют

Подробные технические данные

GeneralComplete name : Человек и его птица (Анатолий Солин) 1975.2x2.mpgFormat : MPEG-PSFile size : 218 MiBDuration : 10mn 11sOverall bit rate mode : VariableOverall bit rate : 2 987 Kbps
VideoID : 224 (0xE0)Format : MPEG VideoFormat version : Version 2Format profile : [email protected] settings, BVOP : YesFormat settings, Matrix : CustomFormat settings, GOP : VariableDuration : 10mn 11sBit rate mode : VariableBit rate : 2 736 KbpsMaximum bit rate : 15.0 MbpsWidth : 720 pixelsHeight : 576 pixelsDisplay aspect ratio : 4:3Frame rate : 25.000 fpsStandard : PALColor space : YUVChroma subsampling : 4:2:0Bit depth : 8 bitsScan type : InterlacedScan order : Top Field FirstCompression mode : LossyBits/(Pixel*Frame) : 0.264Time code of first frame : 00:00:00:00Time code source : Group of pictures headerStream size : 199 MiB (92%)
AudioID : 192 (0xC0)Format : MPEG AudioFormat version : Version 1Format profile : Layer 2Duration : 10mn 11sBit rate mode : ConstantBit rate : 192 KbpsChannel(s) : 2 channelsSampling rate : 48.0 KHzCompression mode : LossyStream size : 14.0 MiB (6%)

Скриншоты

Other forum [Profile] [PM]
Display posts from previous:    
Reply to topic

The time now is: Today 03:35

All times are GMT + 3 Hours



You cannot post new topics in this forum
You cannot reply to topics in this forum
You cannot edit your posts in this forum
You cannot delete your posts in this forum
You cannot vote in polls in this forum
You cannot attach files in this forum
You cannot download files in this forum