Today is a free download without charge Download

Остров ошибок (Валентина Брумберг, Зинаида Брумберг) [1955, мультфильм, семейный, DVB]

Reply to topic
 
Author
Message

Omen ®

Longevity: 7 years 11 months

Posts: 181087

Торрент-статистика

Post 04-Mar-2013 20:16

[Quote]

Остров ошибок-Страна: СССР
Жанр: мультфильм, семейный
Продолжительность: 00:25:07
Год выпуска: 1955
Русские субтитры: нет-Режиссёр: Валентина Брумберг, Зинаида Брумберг
Роли озвучивали: Серафима Бирман, Софья Гаррель, Галина Новожилова, Владимир Грибков, Вера Бендина, Лилия Гриценко, П. Брянский, Е. Морес, Ирина Гошева, Ольга Андровская.-Описание: Комедийно-фантастический фильм о двоечнике Коле Сорокине, который прогулял все лето, и совсем забыл про домашние задания. Все его плохие оценки превратились в черных лебедей и унесли на остров его же собственных ошибок. На острове он встречает... неправильно разделенных зайцев, невесомого слона и других животных. В итоге неправильное решение задач доставляет Коле много неприятностей. Эти испытания заставляют героя по-другому отнестись к своим обязанностям...- -Качество: DVB
Формат: MPG
Видео: 704x576 (4:3), 25.000 fps, MPEG-2 Video, ~1677 Kbps, 0.165 bits/pixel
Аудио: 48.0 KHz, MPEG-1 Audio layer 2, 2 ch, 192 Kbps
Субтитры: отсутствуют

Подробные технические данные

GeneralComplete name : Остров Ошибок Культура.mpgFormat : MPEG-PSFile size : 343 MiBDuration : 25mn 7sOverall bit rate mode : VariableOverall bit rate : 1 907 Kbps
VideoID : 224 (0xE0)Format : MPEG VideoFormat version : Version 2Format profile : [email protected] settings, BVOP : YesFormat settings, Matrix : CustomFormat settings, GOP : M=3, N=24Duration : 25mn 7sBit rate mode : VariableBit rate : 1 677 KbpsMaximum bit rate : 15.0 MbpsWidth : 704 pixelsHeight : 576 pixelsDisplay aspect ratio : 4:3Frame rate : 25.000 fpsStandard : PALColor space : YUVChroma subsampling : 4:2:0Bit depth : 8 bitsCompression mode : LossyBits/(Pixel*Frame) : 0.165Time code of first frame : 00:00:00:00Time code source : Group of pictures headerStream size : 301 MiB (88%)
AudioID : 192 (0xC0)Format : MPEG AudioFormat version : Version 1Format profile : Layer 2Duration : 25mn 7sBit rate mode : ConstantBit rate : 192 KbpsChannel(s) : 2 channelsSampling rate : 48.0 KHzCompression mode : LossyStream size : 34.5 MiB (10%)

Скриншоты

Other forum [Profile] [PM]
Display posts from previous:    
Reply to topic

The time now is: Today 05:38

All times are GMT + 3 Hours



You cannot post new topics in this forum
You cannot reply to topics in this forum
You cannot edit your posts in this forum
You cannot delete your posts in this forum
You cannot vote in polls in this forum
You cannot attach files in this forum
You cannot download files in this forum