Today is a free download without charge Download

(Soundtracks, Instrumental) VA - We All Love Ennio Morricone (2007) Lossless

Reply to topic
 
Author
Message

Varius ®

Gender:

Longevity: 11 years

Posts: 2428

Location: Hell

Торрент-статистика

Post 02-Jul-2010 16:07

[Quote]

VA - We All Love Ennio Morricone (2007)
Категория: cборник
Исполнитель: VA
Название диска: We All Love Ennio Morricone
Жанр: Score, Soundtracks, Instrumental
Год Выпуска: 2007
Количество треков: 17
Время Звучания: 01:10:01
Формат | Качество: APE 2.0 | CBR 766 кбит/с
"We All Love Ennio Morricone" – беспрецедентный проект, в рамках которого хрестоматийные композиции Морриконе исполняют ярчайшие звезды поп-музыки, рока и оперы. Среди них – Metallica, Yo-Yo Ma, Брюс Спрингстин, Селин Дион, Роджер Уотерс и другие.
Очень величественно начинается этот диск с композиции «I Knew I Loved You», исполняемой Селин Дион (Celine Dion). Прекрасная оркестровая аранжировка и неподражаемый голос поп-дивы сливаются в едином любовном порыве. В очередной раз радует своей джазовой интерпретацией Куинси Джонс (Quincy Jones), исполняющий бессмертную «The Good, The Bad and The Ugly». Нельзя пропустить итальянского тенора Андреа Бочелли (Andrea Bocelli) с композицией «Conradiana». А что вытворяют нестареющие рокеры Металлика (Metallica) в «The Ecstasy of Gold» – разнообразные гитарные рифы, энергичные ударные – они не отступают от своего фирменного стиля нигде и никогда! А дальше идут «Come Sail Away» с тонким сопрано Рене Флеминг (Renee Fleming) и авторское исполнение «Gabriel’s Oboe». По-настоящему расслабляет easy-listening исполнение «Conmigo» переходящее в эмоциональную «La Luz Prodigiosa». Известный нам Крис Ботти (Chris Botti) строит свою грустную прелюдию на трубе в «Love Affair», а «Je Changerais d’Avis» наоборот заводит легкими попсовыми нотками с французским акцентом на шансон. Заканчивается парад произведений Эннио Морриконе исполнением темы «Cinema Paradiso» с милым рояльным соло и чувством вселенского спокойствия и удовлетворения.
Треклист:
01. Celine Dion — I Knew I Loved You (4:54)
02. Quincy Jones Feat. Herbie Hancock — The Good, The Bad And The Ugly (6:44)
03. Bruce Springsteen — Once Upon A Time In The West (3:40)
04. Andrea Bocelli — Conradiana (4:28)
05. Metallica — The Ecstasy Of Gold (3:50)
06. Yo-Yo Ma — Malena (4:15)
07. Renиe Fleming — Come Sail Away (5:03)
08. Ennio Morricone — Gabriel's Oboe (2:50)
09. Daniela Mercury Feat. Eumir Deodato — Conmigo (4:17)
10. Dulce Pontes — La Luz Prodigiosa (5:05)
11. Chris Botti — Love Affair (4:50)
12. Vanessa And The O's — Je Changerais D'Avis (3:51)
13. Roger Waters — Lost Boy Calling (5:37)
14. Ennio Morricone — The Tropical Variation (3:29)
15. Denyce Graves — Could Heaven Be (2:18)
16. Taro Hakase — Addio Monti (2:57)
17. Ennio Morricone — Cinema Paradiso (1:53)

Log

EAC extraction logfile from 27. March 2007, 13:59 for CD
Various / We All Love Ennio Morricone
Used drive : PIONEER DVD-RW DVR-109 Adapter: 1 ID: 1
Read mode : Secure with NO C2, accurate stream, disable cache
Read offset correction : 48
Overread into Lead-In and Lead-Out : No
Used output format : Internal WAV Routines
44.100 Hz; 16 Bit; Stereo
Other options :
Fill up missing offset samples with silence : Yes
Delete leading and trailing silent blocks : No
Installed external ASPI interface
Range status and errors
Selected range
Filename C:\Lanzamientos\Various - We All Love Ennio Morricone\We All Love Ennio Morricone.wav
Peak level 100.0 %
Range quality 100.0 %
CRC DF054287
Copy OK
No errors occured
End of status report

cue

REM GENRE "Soundtrack"
REM DATE 2007
REM DISCID 17106911
REM COMMENT "ExactAudioCopy v0.95b4"
REM ACCURATERIPID 002f1c36-024b8b99-17106911
REM TOTALDISCS 1
REM DISCNUMBER 1
PERFORMER "Various"
TITLE "We All Love Ennio Morricone"
FILE "Various - 2007 - We All Love Ennio Morricone.ape" WAVE
TRACK 01 AUDIO
TITLE "I Knew I Loved You"
PERFORMER "Celine Dion"
INDEX 01 00:00:00
TRACK 02 AUDIO
TITLE "The Good, The Bad And The Ugly"
PERFORMER "Quincy Jones Feat. Herbie Hancock"
INDEX 01 04:53:42
TRACK 03 AUDIO
TITLE "Once Upon A Time In The West"
PERFORMER "Bruce Springsteen"
INDEX 01 11:37:65
TRACK 04 AUDIO
TITLE "Conradiana"
PERFORMER "Andrea Bocelli"
INDEX 01 15:17:66
TRACK 05 AUDIO
TITLE "The Ecstasy Of Gold"
PERFORMER "Metallica"
INDEX 01 19:45:45
TRACK 06 AUDIO
TITLE "Malena"
PERFORMER "Yo-Yo Ma"
INDEX 01 23:35:55
TRACK 07 AUDIO
TITLE "Come Sail Away"
PERFORMER "Renиe Fleming"
INDEX 01 27:50:67
TRACK 08 AUDIO
TITLE "Gabriel's Oboe"
PERFORMER "Ennio Morricone"
INDEX 01 32:54:23
TRACK 09 AUDIO
TITLE "Conmigo"
PERFORMER "Daniela Mercury Feat. Eumir Deodato"
INDEX 01 35:44:28
TRACK 10 AUDIO
TITLE "La Luz Prodigiosa"
PERFORMER "Dulce Pontes"
INDEX 01 40:00:74
TRACK 11 AUDIO
TITLE "Love Affair"
PERFORMER "Chris Botti"
INDEX 01 45:05:48
TRACK 12 AUDIO
TITLE "Je Changerais D'avis"
PERFORMER "Vanessa And The O's"
INDEX 01 49:55:29
TRACK 13 AUDIO
TITLE "Lost Boy Calling"
PERFORMER "Roger Waters"
INDEX 01 53:46:30
TRACK 14 AUDIO
TITLE "The Tropical Variation"
PERFORMER "Ennio Morricone"
INDEX 01 59:23:48
TRACK 15 AUDIO
TITLE "Could Heaven Be"
PERFORMER "Denyce Graves"
INDEX 01 62:52:63
TRACK 16 AUDIO
TITLE "Addio Monti"
PERFORMER "Taro Hakase"
INDEX 01 65:11:15
TRACK 17 AUDIO
TITLE "Cinema Paradiso"
PERFORMER "Ennio Morricone"
INDEX 01 68:08:11

_________________

Создавая "Новую папку", не считайте себя Создателем - это право Вам дано Админом




Last edited by Varius on 2011-02-04 21:11; edited 4 times in total
Other forum [Profile] [PM]
Display posts from previous:    
Reply to topic

The time now is: Today 03:17

All times are GMT + 3 Hours



You cannot post new topics in this forum
You cannot reply to topics in this forum
You cannot edit your posts in this forum
You cannot delete your posts in this forum
You cannot vote in polls in this forum
You cannot attach files in this forum
You cannot download files in this forum