Today is a free download without charge Download

Стальная бабочка (Ренат Давлетьяров) [2012, Россия, драма, криминал, детектив, BDRip 720p] Original Rus

Reply to topic
 
Author
Message

Omen ®

Longevity: 8 years 5 months

Posts: 181087

Торрент-статистика

Post 04-Mar-2013 16:08

[Quote]

Стальная бабочка
Страна: Россия
Студия: Интерфест
Жанр: драма, криминал, детектив
Год выпуска: 2012
Продолжительность: 01:46:41
Перевод: Не требуется
Cубтитры: нет
Оригинальная аудиодорожка: русский
Режиссер: Ренат Давлетьяров
В ролях: Дарья Мельникова, Анатолий Белый, Дарья Мороз, Елена Галубина, Андрей Казаков, Петр Винс, Алексей Семченков, Максим Дромашко, Виктор Немец, Мария Наумова
Описание: Беглые беспризорники во главе с юной Чумой зарабатывают на пропитание дерзкими ограблениями. Попавшись в очередной раз на разбое, Чума вынуждена под давлением полиции стать живой приманкой для серийного убийцы. Если она пополнит список жертв, искать ее никто не станет. Почерк маньяка одинаков, все девушки похожи, а место охоты — лесной массив на окраине Москвы. Для опера Ханина поимка монстра не просто вопрос чести, но и цена погон. А для Чумы — цена свободы. Общая цель сближает юную беспризорницу и взрослого циничного опера.
Кинотавр, 2012 год
Номинации: Главный приз

Сэмпл: http://multi-up.com/838467
Тип релиза: BDRip 720p
Контейнер: MKV
Видео: AVC, x264, 1280x720 (16:9), 2550 Кбит/сек, 24 кадр/сек
Аудио: AC-3, 384 Кбит/сек, 6 канала(ов), 48,0 КГц

MediaInfo

Общее
Уникальный идентификатор : 202434650269672825088989419670601035128 (0x984B7ED75B79E57DAD378E7FA3F56D78)
Полное имя : E:\Stalnaya.Babochka.2012.BDRip720p.mkv
Формат : Matroska
Версия формата : Version 2
Размер файла : 2,19 Гбайт
Продолжительность : 1 ч. 46 м.
Общий поток : 2935 Кбит/сек
Дата кодирования : UTC 2012-11-24 01:28:23
Программа кодирования : mkvmerge v5.5.0 ('Healer') built on Apr 6 2012 21:43:24
Библиотека кодирования : libebml v1.2.3 + libmatroska v1.3.0
Видео
Идентификатор : 1
Формат : AVC
Формат/Информация : Advanced Video Codec
Профиль формата : [email protected]
Параметр CABAC формата : Да
Параметр ReFrames формата : 4 кадра
Идентификатор кодека : V_MPEG4/ISO/AVC
Продолжительность : 1 ч. 46 м.
Битрейт : 2550 Кбит/сек
Ширина : 1280 пикселей
Высота : 720 пикселей
Соотношение сторон : 16:9
Режим частоты кадров : Постоянный
Частота кадров : 24,000 кадра/сек
Цветовое пространство : YUV
Субдискретизация насыщенности : 4:2:0
Битовая глубина : 8 бит
Тип развёртки : Прогрессивная
Бит/(Пиксели*Кадры) : 0.115
Размер потока : 1,86 Гбайт (85%)
Заголовок : Стальная бабочка
Библиотека кодирования : x264 core 129 r2230 1cffe9f
Настройки программы : cabac=1 / ref=4 / deblock=1:0:0 / analyse=0x3:0x133 / me=hex / subme=7 / psy=1 / psy_rd=1.00:0.00 / mixed_ref=1 / me_range=16 / chroma_me=1 / trellis=1 / 8x8dct=1 / cqm=0 / deadzone=21,11 / fast_pskip=1 / chroma_qp_offset=-2 / threads=12 / lookahead_threads=2 / sliced_threads=0 / nr=0 / decimate=1 / interlaced=0 / bluray_compat=0 / constrained_intra=0 / bframes=3 / b_pyramid=2 / b_adapt=1 / b_bias=0 / direct=1 / weightb=1 / open_gop=0 / weightp=2 / keyint=240 / keyint_min=24 / scenecut=40 / intra_refresh=0 / rc_lookahead=40 / rc=2pass / mbtree=1 / bitrate=2550 / ratetol=1.0 / qcomp=0.60 / qpmin=10 / qpmax=51 / qpstep=4 / cplxblur=20.0 / qblur=0.5 / ip_ratio=1.40 / aq=1:1.00
Язык : English
Default : Да
Forced : Нет
Аудио
Идентификатор : 2
Формат : AC-3
Формат/Информация : Audio Coding 3
Расширение режима : CM (complete main)
Параметр Endianness формата : Big
Идентификатор кодека : A_AC3
Продолжительность : 1 ч. 46 м.
Вид битрейта : Постоянный
Битрейт : 384 Кбит/сек
Каналы : 6 каналов
Расположение каналов : Front: L C R, Side: L R, LFE
Частота : 48,0 КГц
Битовая глубина : 16 бит
Метод сжатия : С потерями
Размер потока : 293 Мбайт (13%)
Заголовок : Оригинальное [лицензия]
Язык : Russian
Default : Да
Forced : Нет

Скриншоты

Other forum [Profile] [PM]
Similar theme
Forum Topic Author Torrent Replies Last Post
./templates/default/images/folder_dl.gif Техническая и научно-популярная литература А.А.Мельников и др. | Микропроцессоры, микроконтроллеры и однокристальные микропрограммируемые устройства. Часть 1 и 2 [2008] [DJVU] UndegraundMen
1 | 0

0 | 707

1

2013-05-17 00:04
UndegraundMen Latest
Display posts from previous:    
Reply to topic

The time now is: Today 13:45

All times are GMT + 3 Hours



You cannot post new topics in this forum
You cannot reply to topics in this forum
You cannot edit your posts in this forum
You cannot delete your posts in this forum
You cannot vote in polls in this forum
You cannot attach files in this forum
You cannot download files in this forum