Today is a free download without charge Download

Легенда адского дома / The Legend of Hell House (Джон Хаф / John Hough) [1973, Великобритания, ужасы, детектив, BDRip 720p] AVO (Сергей Визгунов) + Original Eng

Reply to topic
 
Author
Message

Omen ®

Longevity: 8 years 5 months

Posts: 181087

Торрент-статистика

Post 04-Mar-2013 12:00

[Quote]

Легенда адского дома / The Legend of Hell House Страна: Великобритания
Студия: Academy Pictures Corporation
Жанр: ужасы, детектив
Год выпуска: 1973
Продолжительность: 01:34:01
Перевод: Авторский (одноголосый закадровый) Сергей Визгунов
Cубтитры: нет
Оригинальная аудиодорожка: английский
Режиссер: Джон Хаф / John Hough
В ролях: Родди МакДауэлл /Roddy McDowall/, Пэмела Фрэнклин /Pamela Franklin/, Клайв Ревилл /Clive Revill/, Гэйл Ханникатт /Gayle Hunnicutt/, Роланд Калвер /Roland Culver/, Питер Баулз /Peter Bowles
Описание: Умирающий миллионер Рудольф Дойч, который хочет исследовать возможность жизни после смерти, нанимает четверых ученых, чтобы они провели одну неделю в здании, известном под названием «Адский дом», в котором, как считается, обитают привидения. Физик Лайонелл Барретт, его жена Энн и двое медиумов-экстрасенсов, Флоренс Таннер и Бенджамин Фишер, прибывают в дом Эмерика Веласко, жестокого садиста. В конце двадцатых годов в доме было обнаружено множество трупов пришедших к Веласко гостей, но тело самого хозяина так никогда и не нашли…

Тип релиза: BDRip 720p
Контейнер: MKV
Видео кодек: H264
Аудио кодек: AC3
Видео: 1280х688 (1.85:1), 23,976 кадр/сек, 4219 Кбит/сек, 0.20 bit/pixel
Аудио 1: 48 kHz, AC3 Dolby Digital, 2/0 (L,R) ch, ~192 kbps - Визгунов
Аудио 2: 48 kHz, AC3 Dolby Digital, 2/0 (L,R) ch, ~192 kbps - Английский

MediaInfo


Complete name : Legenda.adskogo.doma.1973.Dual.BDRip720p.mkv
Format : Matroska
Format version : Version 2
File size : 3.02 GiB
Duration : 1h 34mn
Overall bit rate : 4 604 Kbps
Encoded date : UTC 2013-03-04 04:57:53
Writing application : mkvmerge v4.0.0 ('The Stars were mine') сборка от Jun 6 2010 16:18:42
Writing library : libebml v1.0.0 + libmatroska v1.0.0
Video
ID : 1
Format : AVC
Format/Info : Advanced Video Codec
Format profile : [email protected]
Format settings, CABAC : Yes
Format settings, ReFrames : 5 frames
Codec ID : V_MPEG4/ISO/AVC
Duration : 1h 34mn
Bit rate : 4 219 Kbps
Width : 1 280 pixels
Height : 688 pixels
Display aspect ratio : 1.85:1
Frame rate mode : Constant
Frame rate : 23.976 fps
Color space : YUV
Chroma subsampling : 4:2:0
Bit depth : 8 bits
Scan type : Progressive
Bits/(Pixel*Frame) : 0.200
Stream size : 2.71 GiB (90%)
Writing library : x264 core 129 r2245 bc13772
Encoding settings : cabac=1 / ref=5 / deblock=1:0:0 / analyse=0x3:0x133 / me=umh / subme=7 / psy=1 / psy_rd=1.00:0.00 / mixed_ref=1 / me_range=16 / chroma_me=1 / trellis=1 / 8x8dct=1 / cqm=0 / deadzone=21,11 / fast_pskip=0 / chroma_qp_offset=-2 / threads=12 / lookahead_threads=2 / sliced_threads=0 / nr=0 / decimate=1 / interlaced=0 / bluray_compat=0 / constrained_intra=0 / bframes=3 / b_pyramid=2 / b_adapt=1 / b_bias=0 / direct=1 / weightb=1 / open_gop=0 / weightp=2 / keyint=240 / keyint_min=23 / scenecut=40 / intra_refresh=0 / rc_lookahead=40 / rc=2pass / mbtree=1 / bitrate=4219 / ratetol=1.0 / qcomp=0.60 / qpmin=10 / qpmax=69 / qpstep=4 / cplxblur=20.0 / qblur=0.5 / ip_ratio=1.40 / aq=1:1.00
Language : English
Default : No
Forced : No
Audio #1
ID : 2
Format : AC-3
Format/Info : Audio Coding 3
Mode extension : CM (complete main)
Format settings, Endianness : Big
Codec ID : A_AC3
Duration : 1h 34mn
Bit rate mode : Constant
Bit rate : 192 Kbps
Channel(s) : 2 channels
Channel positions : Front: L R
Sampling rate : 48.0 KHz
Bit depth : 16 bits
Compression mode : Lossy
Delay relative to video : 4ms
Stream size : 129 MiB (4%)
Language : Russian
Default : Yes
Forced : No
Audio #2
ID : 3
Format : AC-3
Format/Info : Audio Coding 3
Mode extension : CM (complete main)
Format settings, Endianness : Big
Codec ID : A_AC3
Duration : 1h 34mn
Bit rate mode : Constant
Bit rate : 192 Kbps
Channel(s) : 2 channels
Channel positions : Front: L R
Sampling rate : 48.0 KHz
Bit depth : 16 bits
Compression mode : Lossy
Delay relative to video : 28ms
Stream size : 129 MiB (4%)
Language : English
Default : No
Forced : No
Menu
00:00:00.000 : en:00:00:00.000
00:07:41.210 : en:00:07:41.210
00:14:13.394 : en:00:14:13.394
00:20:52.417 : en:00:20:52.417
00:29:58.588 : en:00:29:58.588
00:37:50.101 : en:00:37:50.101
00:45:05.285 : en:00:45:05.285
00:54:00.445 : en:00:54:00.445
01:00:48.853 : en:01:00:48.853
01:08:36.362 : en:01:08:36.362
01:14:43.020 : en:01:14:43.020
01:22:51.007 : en:01:22:51.007
01:33:51.667 : en:01:33:51.667

Скриншоты

Other forum [Profile] [PM]
Similar theme
Forum Topic Author Torrent Replies Last Post
./templates/default/images/folder_dl.gif Фильмы Кому всунешь, ту и чпокнешь (Сергей Логинов / Кинокомпания «Клубничка») [2010 г., Feature, Anal Sex, Russian Girls, DVDRip] (Оля Захарова, Таня Легенда, Злата Козак, Тася Кошечкина, Лида Хорошева, Злата Пинки, Лена Нимфа, Гуля Мамедова, Е. Скворцова) Anonymous
0 | 1

0 | 10307

120

2017-04-01 20:24
Anonymous Latest
Display posts from previous:    
Reply to topic

The time now is: Today 11:51

All times are GMT + 3 Hours



You cannot post new topics in this forum
You cannot reply to topics in this forum
You cannot edit your posts in this forum
You cannot delete your posts in this forum
You cannot vote in polls in this forum
You cannot attach files in this forum
You cannot download files in this forum