Today is a free download without charge Download

Хранители сети (2010) DVD5

Reply to topic
 
Author
Message

Varius ®

Gender:

Longevity: 11 years

Posts: 2428

Location: Hell

Торрент-статистика

Post 03-Jun-2011 04:13

[Quote]

Хранители сети (2010) DVD5- Русское название: Хранители сети
Год выпуска: 2010
Производство: Россия, Intra Communications inc.
Жанр: Фантастика, Боевик, Приключения
Перевод: Оригиналый [лицензия]
Субтитры: Отсутствуют

Режиссер: Дмитрий Матов
Актеры: Михаил Козаков, Александр Носик, Дмитрий Лабуш, Клавдия Коршунова, Александр Яцко, Александр Баширов, Дмитрий Матов
Описание фильма:
Хранители сети - тайная организация. Ее члены - Игорь, Макс и их подруга Женя - законченные авантюристы и гении всемирной паутины. В прошлом умелые хакеры, вскрывшие не одну секретную базу данных, теперь они служат на благо Родине и гордо называют себя нетрейнджерами. Впрочем, подход к работе у них остался тот же...
Дополнительно: Фотогалерея, анимированное меню, анонсы новых фильмов, фильмография
Продолжительность: 01:18:16
Качество видео: DVD5
Видеокодек: MPEG-2
Битрейт видео: ~5982 Кбит/сек
Размер кадра: PAL 4:3 (720x576)
Аудиокодек: AC3 5.1
Битрейт аудио: 448 Кбит/сек
Сэмпл: Скачать

DVDInfo

Title: Hraniteli.seti.2010.O.DVD
Size: 4.05 Gb ( 4 250 878,00 KBytes ) - DVD-5
Enabled regions: 1, 2, 3, 4, 5, 6, 7, 8
VTS_01 :
Play Length: 00:00:05
Video: PAL 4:3 (720x576) VBR
Subtitles:
English
English
VTS_02 :
Play Length: 00:00:15
Video: PAL 16:9 (720x576) VBR, Auto Letterboxed
Audio:
Not specified (Dolby AC3, 6 ch)
Subtitles:
Not specified
VTS_03 :
Play Length: 00:01:52
Video: PAL 16:9 (720x576) VBR, Auto Letterboxed
Audio:
Not specified (Dolby AC3, 2 ch)
Subtitles:
Not specified
VTS_04 :
Play Length: 01:18:16
Video: PAL 4:3 (720x576) VBR
Audio:
Russian (Dolby AC3, 6 ch)
VTS_05 :
Play Length: 00:02:00
Video: PAL 16:9 (720x576) VBR, Auto Letterboxed
Audio:
Not specified (Dolby AC3, 2 ch)
Subtitles:
Not specified
VTS_06 :
Play Length: 00:01:44
Video: PAL 16:9 (720x576) VBR, Auto Letterboxed
Audio:
Not specified (Dolby AC3, 2 ch)
Subtitles:
Not specified
VTS_07 :
Play Length: 00:02:07
Video: PAL 4:3 (720x576) VBR
Audio:
Not specified (Dolby AC3, 2 ch)
Subtitles:
Not specified
VTS_08 :
Play Length: 00:01:18
Video: PAL 4:3 (720x576) VBR
Audio:
Not specified (Dolby AC3, 2 ch)

MediaInfo

Общее
Полное имя : D:\торрент\Hraniteli.seti.2010.O.DVD\VIDEO_TS\VTS_04_1.VOB
Формат : MPEG-PS
Размер файла : 1024 Мбайт
Продолжительность : 21 м.
Общий поток : 6561 Кбит/сек
Видео
Идентификатор : 224 (0xE0)
Формат : MPEG Video
Версия формата : Version 2
Профиль формата : [email protected]
Параметр BVOP формата : Да
Параметр матрицы формата : По умолчанию
Продолжительность : 21 м.
Вид битрейта : Переменный
Битрейт : 5982 Кбит/сек
Номинальный битрейт : 8000 Кбит/сек
Ширина : 720 пикс.
Высота : 576 пикс.
Соотношение сторон : 4:3
Частота кадров : 25,000 кадр/сек
Стандарт вещания : PAL
Цветовое пространство : YUV
Подвыборка цветности : 4:2:0
Битовая глубина : 8 бит
Тип развёртки : Чересстрочная
Порядок развёртки : Нижнее поле первое
Метод сжатия : С потерями
Бит/(Пиксели*Кадры) : 0.577
Размер потока : 934 Мбайт (91%)
Аудио
Идентификатор : 189 (0xBD)-128 (0x80)
Формат : AC-3
Формат/Информация : Audio Coding 3
Расширение режима : CM (complete main)
Режим смешивания : DVD-Video
Продолжительность : 21 м.
Вид битрейта : Постоянный
Битрейт : 448 Кбит/сек
Каналы : 6 каналов
Расположение каналов : Front: L C R, Side: L R, LFE
Частота : 48,0 КГц
Битовая глубина : 16 бит
Метод сжатия : С потерями
Размер потока : 69,9 Мбайт (7%)
Меню

Скриншоты меню

   
Скриншоты:
       

_________________

Создавая "Новую папку", не считайте себя Создателем - это право Вам дано Админом




Last edited by Varius on 2011-06-03 04:13; edited 1 time in total
Other forum [Profile] [PM]
Display posts from previous:    
Reply to topic

The time now is: Today 20:43

All times are GMT + 3 Hours



You cannot post new topics in this forum
You cannot reply to topics in this forum
You cannot edit your posts in this forum
You cannot delete your posts in this forum
You cannot vote in polls in this forum
You cannot attach files in this forum
You cannot download files in this forum