Сегодня идет свободное скачивание без начисления Download

Штепсель женит Тарапуньку (1957) DVD5

Ответить на тему
 
Автор
Сообщение

UndegraundMen ®

Стаж: 5 лет 7 месяцев

Сообщений: 25860

Торрент-статистика

Пост 04-Мар-2013 06:25

[Цитировать]

Штепсель женит Тарапуньку (1957) DVD5- Русское название: Штепсель женит Тарапуньку
Год выпуска: 1957
Жанр: Комедия
Язык: Украинский+русский (один герой фильма говорит по украински другой - по русски)
Описание фильма:
Регулировщик Тарапунька познакомился с Галей еще во время войны. О своей любви к милой девушке с редкой и необычной фамилией - Суматоха - он поведал единственному другу Штепселю. Чрезмерная робость помешала Тарапуньке объясниться с Галей. Когда кончилась война, Галя приехала в Киев, чтобы принять участие в олимпиаде самодеятельности. Тарапунька вновь увидел любимую девушку, но случай опять помешал объясниться влюбленным. Приняв остроумных ребят за эстрадных артистов, жюри включает их выступление в первый концерт. Штепсель берется устроить женитьбу друга, но его попытка терпит неудачу, а концерт заканчивается провалом. Друзья начинают серьезно готовиться ко второй программе. Выступление проходит успешно и Тарапунька объясняется, наконец, Гале в любви.
Режиссер: Ефим Березин, Юрий Тимошенко
Актеры: Ефим Березин, Юрий Тимошенко, Таисия Литвиненко, Мария Мушкина, Владимир Дальский, Нонна Копержинская, Наталья Самсонова, Александр Хвыля, Виктор Халатов, Николай Яковченко, Николай Панасьев, Павел Шпрингфельд, Клавдия Хабарова, Софья Карамаш, Дмитрий Кап
Продолжительность: 01:14:44
Видеокодек: MPEG-2
Битрейт видео: ~6195 Кбит/сек
Размер кадра: 768x576
Качество видео: DVD5
Аудиокодек: AC3 2.0
Битрейт аудио: 256 Кбит/сек

DVDInfo:

Title: Штепсель женит Тарапуньку (1957) DVD5
Size: 3.53 Gb ( 3 696 740,00 KBytes ) - DVD-5
Enabled regions: 1, 2, 3, 4, 5, 6, 7, 8
VTS_01 :
Play Length: 01:14:44
Video: PAL 4:3 (720x576) VBR
Audio:
  • Ukrainian (Dolby AC3, 2 ch)
    * Menus Information *
    VIDEO_TS Menu
    Video:
  • PAL 4:3 (720x576) VBR
    Ukrainian Language Unit :
  • Title Menu
    VTS_01 Menu
    Video:
  • PAL 4:3 (720x576) VBR
    Audio:
  • Not specified (Dolby AC3, 2 ch)
    Ukrainian Language Unit :
  • Root Menu

MenuDVD:

       

MediaInfo:

Общее
Полное имя : G:\!V\022013\Штепсель женит Тарапуньку (1957)\Штепсель женит Тарапуньку (1957) DVD5\VIDEO_TS\VTS_01_1.VOB
Формат : MPEG-PS
Размер файла : 1024 Мбайт
Продолжительность : 21 м.
Режим общего битрейта : Переменный
Общий поток : 6582 Кбит/сек
Библиотека кодирования : (c) 1998-2007 Womble Multimedia, Inc. / MPEG Video Wizard (04/2007) / Mar 29 2007
Видео
Идентификатор : 224 (0xE0)
Формат : MPEG Video
Версия формата : Version 2
Профиль формата : [email protected]
Параметр BVOP формата : Да
Параметр матрицы формата : По умолчанию
Параметр GOP формата : M=3, N=12
Продолжительность : 21 м.
Вид битрейта : Переменный
Битрейт : 6195 Кбит/сек
Максимальный битрейт : 9800 Кбит/сек
Ширина : 720 пикселей
Высота : 576 пикселей
Соотношение сторон : 4:3
Частота кадров : 25,000 кадров/сек
Стандарт вещания : PAL
Цветовое пространство : YUV
Субдискретизация насыщенности : 4:2:0
Битовая глубина : 8 бит
Тип развёртки : Чересстрочная
Порядок развёртки : Верхнее поле первое
Метод сжатия : С потерями
Бит/(Пиксели*Кадры) : 0.597
Размер потока : 964 Мбайт (94%)
Выравнивание : (c) 1998-2007 Womble Multimedia, Inc. / MPEG Video Wizard (04/2007) / Mar 29 2007
Заголовок : (c) 1998-2007 Womble Multimedia, Inc. / MPEG Video Wizard (04/2007) / Mar 29 2007
Библиотека кодирования : (c) 1998-2007 Womble Multimedia, Inc. / MPEG Video Wizard (04/2007) / Mar 29 2007
Основные цвета : BT.601 PAL
Характеристики трансфера : BT.470 System B, BT.470 System G
Коэффициенты матрицы : BT.601
Аудио
Идентификатор : 189 (0xBD)-128 (0x80)
Формат : AC-3
Формат/Информация : Audio Coding 3
Расширение режима : CM (complete main)
Параметр Endianness формата : Big
Режим смешивания : DVD-Video
Продолжительность : 21 м.
Вид битрейта : Постоянный
Битрейт : 256 Кбит/сек
Каналы : 2 канала
Расположение каналов : Front: L R
Частота : 48,0 КГц
Битовая глубина : 16 бит
Метод сжатия : С потерями
Задержка видео : -80 мс.
Размер потока : 39,8 Мбайт (4%)
Меню
Скриншоты:
       
         
Вне форума [Профиль] [ЛС]
Показать сообщения:    
Ответить на тему

Текущее время: Сегодня 06:41

Часовой пояс: GMT + 3



Вы не можете начинать темы
Вы не можете отвечать на сообщения
Вы не можете редактировать свои сообщения
Вы не можете удалять свои сообщения
Вы не можете голосовать в опросах
Вы не можете прикреплять файлы к сообщениям
Вы не можете скачивать файлы