Сегодня идет свободное скачивание без начисления Download

Мечте навстречу (1963) DVDRip

Ответить на тему
 
Автор
Сообщение

UndegraundMen ®

Стаж: 5 лет 7 месяцев

Сообщений: 25860

Торрент-статистика

Пост 04-Мар-2013 06:25

[Цитировать]

Мечте навстречу (1963) DVDRip- Русское название: Мечте навстречу
Страна: СССР
Производство: Одесская киностудия
Год выпуска: 1963
Жанр: Фантастика
Описание фильма:
Звездолет, направляющийся на Землю с планеты Центурий, недалеко от Марса терпит аварию. Чтобы разыскать пришельцев из вселенной и помочь им, с Земли стартует межзвездный корабль «Океан», на борту которого находится радиоастроном Таня. Вскоре на Луну, с целью обеспечения «Океана» дополнительной энергией, посылают вторую ракету. На ее борту стартуют Баталов и Андрей — человек, который бесконечно дорог Тане…
Режиссер: Михаил Карюков, Отар Коберидзе
Актеры: Лариса Гордейчик, Борис Борисёнок, Отар Коберидзе, Петер Кард, А. Генесин, В. Янпавлис, Николай Тимофеев, Николай Волков, Татьяна Почепа, Л. Чиниджаней

Продолжительность: 01:02:49
Качество видео: DVDRip
Видео: MPEG4, XviD, 704x528 (4:3), 25.000 fps, 2 272 Kbps (0.244 bit/pixel)
Аудио: AC-3, 48.0 KHz, 2 ch, 192 Kbps, CBR

МедиаИнфо:

Видео
Идентификатор : 0
Формат : MPEG-4 Visual
Профиль формата : Advanced [email protected]
Параметр BVOP формата : 1
Параметр QPel формата : Нет
Параметр GMC формата : Без точки перехода
Параметр матрицы формата : Выборочная
Идентификатор кодека : XVID
Идентификатор кодека/Подсказка : XviD
Продолжительность : 1 ч. 2 м.
Битрейт : 2272 Кбит/сек
Ширина : 704 пикселя
Высота : 528 пикселей
Соотношение сторон : 4:3
Частота кадров : 25,000 кадров/сек
Цветовое пространство : YUV
Субдискретизация насыщенности : 4:2:0
Битовая глубина : 8 бит
Тип развёртки : Прогрессивная
Метод сжатия : С потерями
Бит/(Пиксели*Кадры) : 0.244
Размер потока : 1021 Мбайт (92%)
Библиотека кодирования : XviD 64
Аудио
Идентификатор : 1
Формат : AC-3
Формат/Информация : Audio Coding 3
Расширение режима : CM (complete main)
Параметр Endianness формата : Big
Идентификатор кодека : 2000
Продолжительность : 1 ч. 2 м.
Вид битрейта : Постоянный
Битрейт : 192 Кбит/сек
Каналы : 2 канала
Расположение каналов : Front: L R
Частота : 48,0 КГц
Битовая глубина : 16 бит
Метод сжатия : С потерями
Размер потока : 85,6 Мбайт (8%)
Выравнивание : Разделение по промежуткам
Продолжительность промежутка : 40 мс. (1,01 видеокадр)
Время предзагрузки промежутка : 500 мс.
Скриншоты:
         
         
Вне форума [Профиль] [ЛС]
Показать сообщения:    
Ответить на тему

Текущее время: Сегодня 14:50

Часовой пояс: GMT + 3



Вы не можете начинать темы
Вы не можете отвечать на сообщения
Вы не можете редактировать свои сообщения
Вы не можете удалять свои сообщения
Вы не можете голосовать в опросах
Вы не можете прикреплять файлы к сообщениям
Вы не можете скачивать файлы