Today is a free download without charge Download

Ответный ход (1981) DVDRip

Reply to topic
 
Author
Message

UndegraundMen ®

Longevity: 6 years 2 months

Posts: 25150

Торрент-статистика

Post 04-Mar-2013 06:25

[Quote]

Ответный ход (1981) DVDRip- Русское название: Ответный ход
Год выпуска: 1981
Производство: СССР, Мосфильм
Жанр: Боевик, драма, приключения, военный
Режиссер: Михаил Туманишвили
Сценарий: Евгений Месяцев
Актеры: Борис Галкин, Вадим Спиридонов, Валентина Березуцкая, Елена Глебова, Анатолий Кузнецов, Михай Волонтир, Александр Пятков, Лаймонас Норейка, Даниил Нетребин, Владимир Маренков, Михаил Чигарев, Анатолий Ромашин, Леонид Белозорович, Михаил Лещинский, Семен Морозов, Юрий Савельев, Юрий Захаренков, Валерий Хромушкин
Описание фильма:
Командование южных решает послать в тыл северных диверсионную группу в составе Тарасова, Волентира и двух морпехов: Швеца и Зиновьевой. Диверсанты захватывают подполковника Морошкина из группы «Северных», который намеренно подставился, спрятав на теле скрытый передатчик. Тарасов разгадывает замысел, его группа проникает на аэродром северных и отбирает секретные документы у офицера северных. Лыков преследует диверсантов на бронетранспортёре, Волентир ослепляет БТР, машина разносит мост и падает в болото, Волентир тяжело ранен обломками моста. Швец и Тарасов помогают северным вылезти из машины, Зиновьева едет на побережье и передаёт документы. Южные переходят в победоносное наступление.- -Продолжительность: 01:19:42
Качество видео: DVDRip
Видеокодек: XviD
Битрейт видео: 1030 Кбит/сек
Размер кадра: 608x352
Аудио : Русский, AC3, 2 ch, 192 Кбит/сек

Знаете ли вы, что...

  • Сцены на аэродроме «Северных» снимались на аэродроме истребительной авиации ПВО Бельбек. При этом в кадре несколько раз появляются истребители-перехватчики Су-15.

MediaInfo

Код:
Общее
Полное имя                               : E:\Раздачи\Видео\Ответный ход (1981) DVDRip.avi
Формат                                   : AVI
Формат/Информация                        : Audio Video Interleave
Размер файла                             : 700 Мбайт
Продолжительность                        : 1 ч. 19 м.
Общий поток                              : 1229 Кбит/сек
Программа кодирования                    : VirtualDubMod 1.5.4.1 (build 2178/release)
Библиотека кодирования                   : VirtualDubMod build 2178/release
Видео
Идентификатор                            : 0
Формат                                   : MPEG-4 Visual
Профиль формата                          : Advanced [email protected]
Параметр BVOP формата                    : 1
Параметр QPel формата                    : Нет
Параметр GMC формата                     : Без точки перехода
Параметр матрицы формата                 : Выборочная
Идентификатор кодека                     : XVID
Идентификатор кодека/Подсказка           : XviD
Продолжительность                        : 1 ч. 19 м.
Битрейт                                  : 1030 Кбит/сек
Ширина                                   : 608 пикселей
Высота                                   : 352 пикселя
Соотношение сторон                       : 1,727
Частота кадров                           : 25,000 кадров/сек
Цветовое пространство                    : YUV
Субдискретизация насыщенности            : 4:2:0
Битовая глубина                          : 8 бит
Тип развёртки                            : Прогрессивная
Метод сжатия                             : С потерями
Бит/(Пиксели*Кадры)                      : 0.192
Размер потока                            : 587 Мбайт (84%)
Библиотека кодирования                   : XviD 1.2.0.dev47 (UTC 2006-11-01)
Аудио
Идентификатор                            : 1
Формат                                   : AC-3
Формат/Информация                        : Audio Coding 3
Расширение режима                        : CM (complete main)
Параметр Endianness формата              : Big
Идентификатор кодека                     : 2000
Продолжительность                        : 1 ч. 19 м.
Вид битрейта                             : Постоянный
Битрейт                                  : 192 Кбит/сек
Каналы                                   : 2 канала
Расположение каналов                     : Front: L R
Частота                                  : 48,0 КГц
Битовая глубина                          : 16 бит
Метод сжатия                             : С потерями
Размер потока                            : 109 Мбайт (16%)
Выравнивание                             : Разделение по промежуткам
Продолжительность промежутка             : 96  мс. (2,40 видеокадра)
Время предзагрузки промежутка            : 96  мс.
Скриншоты:
         
         -
Other forum [Profile] [PM]
Similar theme
Forum Topic Author Torrent Replies Last Post
./templates/default/images/folder_dl.gif Техническая и научно-популярная литература Стивен Хокинг | Краткие ответы на большие вопросы (2018) [FB2] }{@R0N
1 | 0

0 | 609

5

2019-01-05 23:08
}{@R0N Latest
Display posts from previous:    
Reply to topic

The time now is: Today 14:03

All times are GMT + 3 Hours



You cannot post new topics in this forum
You cannot reply to topics in this forum
You cannot edit your posts in this forum
You cannot delete your posts in this forum
You cannot vote in polls in this forum
You cannot attach files in this forum
You cannot download files in this forum