Today is a free download without charge Download

Цвет белого снега (1970) TVRip

Reply to topic
 
Author
Message

UndegraundMen ®

Longevity: 6 years 2 months

Posts: 25150

Торрент-статистика

Post 04-Mar-2013 06:25

[Quote]

Цвет белого снега (1970) TVRip- Русское название: Цвет белого снега
Год выпуска: 1970
Производство: СССР, ТО «Экран»
Жанр: Мелодрама
Режиссер: Анатолий Васильев, Суламбек Мамилов
Сценарий: Александр Басаргин
Актеры: Марина Неёлова, Вадим Михеенко, Игорь Ефимов, Леонид Кмит, Юрий Овсянко, Александр Хочинский
Описание фильма:
Тонкая, красивая, изящная история любви двух горожан, простых молодых людей-ленинградцев: девушки, контролера метрополитена, и студента художественного училища. Одному надо срочно жениться, а другой просто влюблен.-
Дата мировой премьеры: 5 февраля 1971-Продолжительность: 00:43:02
Качество видео: TVRip
Видеокодек: XviD
Битрейт видео: 2135 Кбит/сек
Размер кадра: 704x528
Аудио : Русский, MP3, 2 ch, 128 Кбит/с

MediaInfo

Код:
Общее
Полное имя                               : E:\Раздачи\Видео\Цвет белого снега (1970) TVRip.avi
Формат                                   : AVI
Формат/Информация                        : Audio Video Interleave
Размер файла                             : 700 Мбайт
Продолжительность                        : 43 м.
Общий поток                              : 2273 Кбит/сек
Программа кодирования                    : VirtualDubModRus 1.5.10.2 (build 2542/release)
Библиотека кодирования                   : VirtualDubMod build 2542/release
Видео
Идентификатор                            : 0
Формат                                   : MPEG-4 Visual
Профиль формата                          : Advanced [email protected]
Параметр BVOP формата                    : 2
Параметр QPel формата                    : Нет
Параметр GMC формата                     : Без точки перехода
Параметр матрицы формата                 : Default (MPEG)
Режим смешивания                         : Сжатый битовый поток
Идентификатор кодека                     : XVID
Идентификатор кодека/Подсказка           : XviD
Продолжительность                        : 43 м.
Битрейт                                  : 2135 Кбит/сек
Ширина                                   : 704 пикселя
Высота                                   : 528 пикселей
Соотношение сторон                       : 4:3
Частота кадров                           : 25,000 кадров/сек
Цветовое пространство                    : YUV
Субдискретизация насыщенности            : 4:2:0
Битовая глубина                          : 8 бит
Тип развёртки                            : Прогрессивная
Метод сжатия                             : С потерями
Бит/(Пиксели*Кадры)                      : 0.230
Размер потока                            : 657 Мбайт (94%)
Библиотека кодирования                   : XviD 1.2.1 (UTC 2008-12-04)
Аудио
Идентификатор                            : 1
Формат                                   : MPEG Audio
Версия формата                           : Version 1
Профиль формата                          : Layer 3
Идентификатор кодека                     : 55
Идентификатор кодека/Подсказка           : MP3
Продолжительность                        : 43 м.
Вид битрейта                             : Постоянный
Битрейт                                  : 128 Кбит/сек
Каналы                                   : 2 канала
Частота                                  : 48,0 КГц
Метод сжатия                             : С потерями
Размер потока                            : 39,4 Мбайт (6%)
Выравнивание                             : Соединение по промежуткам
Продолжительность промежутка             : 40  мс. (1,00 видеокадр)
Время предзагрузки промежутка            : 504  мс.
Библиотека кодирования                   : LAME3.97
Настройки программы                      : -m s -V 4 -q 1 -b 128
Скриншоты:
       
       -
Other forum [Profile] [PM]
Display posts from previous:    
Reply to topic

The time now is: Today 13:02

All times are GMT + 3 Hours



You cannot post new topics in this forum
You cannot reply to topics in this forum
You cannot edit your posts in this forum
You cannot delete your posts in this forum
You cannot vote in polls in this forum
You cannot attach files in this forum
You cannot download files in this forum