Сегодня идет свободное скачивание без начисления Download

Два воскресенья (1963) SATRip

Ответить на тему
 
Автор
Сообщение

UndegraundMen ®

Стаж: 5 лет 7 месяцев

Сообщений: 25860

Торрент-статистика

Пост 04-Мар-2013 06:25

[Цитировать]

Два воскресенья (1963) SATRip- Русское название: Два воскресенья
Год выпуска: 1963
Жанр: Мелодрама
Описание фильма:
Люська, служащая единственной сберкассы совсем молодого города Радиозаводска, выигрывает на лотерейный билет нейлоновую шубку. Сослуживцы советуют девушке получить деньги и купить какую-нибудь полезную штуку. Люська едет в областной город, получает деньги и решает потратить их на двухнедельную поездку в Москву.
Режиссер: Владимир Шредель
Актеры: Людмила Долгорукова, Владимир Корецкий, Людмила Макарова, Максим Максимов, Татьяна Панкова, Валентина Пугачева, Сергей Филиппов, Николай Волков (старший), Михаил Глузский, Марина Полбенцева, Борис Лёскин, Александр Соколов, Майя Блинова, Алексей Смирнов, Андрей Миронов
Продолжительность: 01:24:39

Видеокодек: DivX 5
Битрейт видео: ~2110 kbps
Размер кадра: 720x512 (1.41:1)
Качество видео: SATRip
Аудиокодек: AC3 Dolby Digital, 1/0 (C) ch
Битрейт аудио: 192 kbps

MI

Общее
Полное имя : G:\подготовка релизов\dva.voskreseniya.avi
Формат : AVI
Формат/Информация : Audio Video Interleave
Размер файла : 1,37 Гбайт
Продолжительность : 1 ч. 24 м.
Общий поток : 2313 Кбит/сек
Программа кодирования : VirtualDubMod 1.5.10.2 (build 2540/release)
Библиотека кодирования : VirtualDubMod build 2540/release
Видео
Идентификатор : 0
Формат : MPEG-4 Visual
Параметр BVOP формата : 1
Параметр QPel формата : Нет
Параметр GMC формата : Без точки перехода
Параметр матрицы формата : Default (H.263)
Режим смешивания : Сжатый битовый поток
Идентификатор кодека : DX50
Идентификатор кодека/Подсказка : DivX 5
Продолжительность : 1 ч. 24 м.
Битрейт : 2111 Кбит/сек
Ширина : 720 пикселей
Высота : 512 пикселей
Соотношение сторон : 1,406
Частота кадров : 25,000 кадров/сек
Цветовое пространство : YUV
Субдискретизация насыщенности : 4:2:0
Битовая глубина : 8 бит
Тип развёртки : Прогрессивная
Метод сжатия : С потерями
Бит/(Пиксели*Кадры) : 0.229
Размер потока : 1,25 Гбайт (91%)
Библиотека кодирования : DivX 6.8.2 (UTC 2008-05-17)
Аудио
Идентификатор : 1
Формат : AC-3
Формат/Информация : Audio Coding 3
Расширение режима : CM (complete main)
Идентификатор кодека : 2000
Продолжительность : 1 ч. 24 м.
Вид битрейта : Постоянный
Битрейт : 192 Кбит/сек
Каналы : 1 канал
Расположение каналов : Front: C
Частота : 48,0 КГц
Битовая глубина : 16 бит
Метод сжатия : С потерями
Размер потока : 116 Мбайт (8%)
Выравнивание : Соединение по промежуткам
Продолжительность промежутка : 40 мс. (1,00 видеокадр)
Время предзагрузки промежутка : 512 мс.
Скриншоты:
       
       

Рецензия, отзыв о фильме

"Два воскресенья" -это замечательный образец советского романтизма. Она - кассирша в сбербанке из далекого молодого городка, он - тоже приехал, что называется, "посмотреть столицу". Ни о чём не подозревая, герои постоянно сталкиваются лбами то тут, то там, попадают в какие-то истории. Короче, сильные чувства не за горами.
Но - не всё так просто, и "Два воскресенья" - фильм не из категории "...друга я никогда не забуду, если с ним повстречался в Москве". Картина эта - совершенно незаслуженно, по-моему, забытая - играет на другом поле: авторы, будто в пику прямолинейным приёмам соцреализма, оставляют финал открытым.
Кстати, в том же 63-м Данелия снял "Я шагаю по Москве" - и оба фильма во многом схожи. Не только и не столько сюжетными коллизиями, но, скорее, вот этой непередаваемой атмосферой и настроением, о которых уже слишком много чего наговорено, но которые при этом никто не отменял.
В "Двух воскресеньях" при желании можно разглядеть отсылки к французской новой волне (уж не знаю, смотрели ли режиссер Шредель и сценарист Гребнев Трюффо или Шаброля), радует и классический сюжет про "не того человека", к тому же возведенный здесь в квадрат. Ну а если отбросить в сторону весь этот псевдокиноведческий багаж с ненужными рассуждениями про длинные планы и игру светотени, в сухом остатке мы имеем просто хорошее кино и фантастически, сказочно красивую Москву.
Вне форума [Профиль] [ЛС]
Показать сообщения:    
Ответить на тему

Текущее время: Сегодня 14:14

Часовой пояс: GMT + 3



Вы не можете начинать темы
Вы не можете отвечать на сообщения
Вы не можете редактировать свои сообщения
Вы не можете удалять свои сообщения
Вы не можете голосовать в опросах
Вы не можете прикреплять файлы к сообщениям
Вы не можете скачивать файлы