Today is a free download without charge Download

Дружная семейка (2002-2005) [67 серий из 67] TVRip

Reply to topic
 
Author
Message

UndegraundMen ®

Longevity: 8 years 9 months

Posts: 25145

Торрент-статистика

Post 04-Mar-2013 06:24

[Quote]

Дружная семейка (2002-2005) [67 серий из 67] TVRip- Русское название: Дружная семейка
Год выпуска: 2002-2005
Жанр: Семейный, Комедия

Режиссер: Юрий Стыцковский
Актеры: Марина Дюжева, Александр Симонец, Антон Колесников, Ольга Евтушенко, Юлия Вознесенская, Сергей Апрельский, Александр Дедюшко, Марина Гладилина, Алена Ивченко, Марина Яковлева, Александр Белявский, Владимир Носик, Вячеслав Гришечкин, Анна Самохина, Эвелина Бледанс, Владимир Долинский, Станислав Садальский, и др.
Описание фильма:
Семья Потыкаевых - папа, мама и трое их детей - живет в престижном доме, в самом центре города. Глава семьи работает к солидной фирме, он всегда полон разного рода идей и замыслов. Жена - домохозяйка, которая легко подхватывает идеи мужа, но более осторожна в их осуществлении. В жизни семьи регулярно случаются самые невообразимые происшествия: младший сын учит старшего искусству соблазнять девушек, Потыкаевых берут в заложники, мама устраивает в доме настояний террор или вдруг втихомолку решает превратиться в студентку юрфака, а то в очередной раз приходится спасать главу семейства от увольнения... Это настоящая комедия положений, где кто-то постоянно оказывается не в том месте, не в то время, не с теми людьми, да и вообще этот "кто - то" иногда вовсе не тот, за кого себя выдает…
Продолжительность: 67 х ~ 00:45:00
Качество видео: TVRip
Видеокодек: DivX
Битрейт видео: ~ 1 177 Кбит/с
Размер кадра: 720x544, 586х480
Аудиокодек: MP3 2.0
Битрейт аудио: ~ 128 Кбит/с

MediaInfo:

General
General
Complete name : Druznaja.semejka.(67.sezon.iz.67).2001-2005.DivX.TVRip\Druznaja.semejka.(02.serija.iz.67).2003.DivX.TVRip.avi
Format : AVI
Format/Info : Audio Video Interleave
File size : 407 MiB
Duration : 43mn 16s
Overall bit rate : 1 315 Kbps
Writing application : VirtualDubMod 1.5.10.1 (build 2439/release)
Writing library : VirtualDubMod build 2439/release
Video
ID : 0
Format : MPEG-4 Visual
Format settings, BVOP : 1
Format settings, QPel : No
Format settings, GMC : No warppoints
Format settings, Matrix : Default (H.263)
Muxing mode : Packed bitstream
Codec ID : DX50
Codec ID/Hint : DivX 5
Duration : 43mn 16s
Bit rate : 1 177 Kbps
Width : 720 pixels
Height : 544 pixels
Display aspect ratio : 4:3
Frame rate : 25.000 fps
Color space : YUV
Chroma subsampling : 4:2:0
Bit depth : 8 bits
Scan type : Progressive
Compression mode : Lossy
Bits/(Pixel*Frame) : 0.120
Stream size : 364 MiB (90%)
Writing library : DivX 6.8.5 (UTC 2009-08-20)
Audio
ID : 1
Format : MPEG Audio
Format version : Version 1
Format profile : Layer 3
Mode : Joint stereo
Mode extension : MS Stereo
Codec ID : 55
Codec ID/Hint : MP3
Duration : 43mn 16s
Bit rate mode : Constant
Bit rate : 128 Kbps
Channel(s) : 2 channels
Sampling rate : 48.0 KHz
Compression mode : Lossy
Stream size : 39.6 MiB (10%)
Alignment : Aligned on interleaves
Interleave, duration : 40 ms (1.00 video frame)
Interleave, preload duration : 504 ms
Writing library : LAMEUB“m$’EєOЛЗ‡aЫ
Скриншоты:
         
Other forum [Profile] [PM]
Display posts from previous:    
Reply to topic

The time now is: Today 23:00

All times are GMT + 3 Hours



You cannot post new topics in this forum
You cannot reply to topics in this forum
You cannot edit your posts in this forum
You cannot delete your posts in this forum
You cannot vote in polls in this forum
You cannot attach files in this forum
You cannot download files in this forum