Today is a free download without charge Download

Пером и шпагой [12 серий из 12] (2007) 3xDVD9

Reply to topic
 
Author
Message

UndegraundMen ®

Longevity: 8 years 9 months

Posts: 25145

Торрент-статистика

Post 04-Mar-2013 06:24

[Quote]

Пером и шпагой [12 серий из 12] (2007) 3xDVD9 - Русское название: Пером и шпагой
Производство: Россия
Год выпуска: 2007
Жанр: Приключения, История
Дата выхода DVD: 19 мая 2011, «Русское счастье»
Режиссер: Евгений Иванов
Актеры: Елена Николаева, Ольга Антонова, Игорь Васильев, Антон Макарский, Ольга Самошина, Алексей Барабаш, Сергей Барковский, Валентин Букин, Владимир Глазков, Александр Орловский ...
Описание фильма:
В основе сериала — события восемнадцатого века, малоизвестные подробности из истории дипломатии периода той войны, которая впоследствии получила название Семилетней; о славе и подвигах российских войск, дошедших в битвах до Берлина. Но в центре событий не столько боевые эпизоды, а «закулисье» так называемой «секретной дипломатии», особого явления международных отношений середины века, где шпионаж и придворные интриги, где любовные отношения тесно переплелись с подкупом и предательством.
Один из главных действующих лиц повествования кавалер де Еон — дипломат и шпион Версаля при русском дворе. Дуэлянт, республиканец, «который 48 лет прожил мужчиной, а 34 года считался женщиной и в мундире, и в кружевах сумел прославить себя, одинаково доблестно владея пером и шпагой».
Продолжительность: 12 ~ 00:45:00
Субтитры: украинские, вшитые
Качество видео: DVD9
Видеокодек: MPEG-2
Битрейт видео: ~4175 kb/s
Размер кадра: [email protected] (PAL 4:3) VBR
Аудиокодек: AC3, 6 ch
Битрейт аудио: 448 kb/s
СЭМПЛ
Дополнительные материалы: Смотрите на DVD; Создатели и исполнители

DVDInfo

Title: DVD-3
Size: 6.13 Gb ( 6 431 276,00 KBytes ) - DVD-9
Enabled regions: 1, 2, 3, 4, 5, 6, 7, 8
VTS_01 :
Play Length: 00:00:28
Video: PAL 4:3 (720x576) VBR
Audio:
  • Russian (Dolby AC3, 2 ch)
    VTS_02 :
    Play Length: 00:04:39
    Video: PAL 4:3 (720x576) VBR
    Audio:
  • Russian (Dolby AC3, 2 ch)
    VTS_03 :
    Play Length: 00:00:00
    Video: PAL 4:3 (720x576) VBR
    Subtitles:
  • Not specified
    VTS_04 :
    Play Length: 00:44:50
    Video: PAL 4:3 (720x576) VBR
    Audio:
  • Russian (Dolby AC3, 6 ch)
    Subtitles:
  • Ukrainian
    VTS_05 :
    Play Length: 00:45:03
    Video: PAL 4:3 (720x576) VBR
    Audio:
  • Russian (Dolby AC3, 6 ch)
    Subtitles:
  • Ukrainian
    VTS_06 :
    Play Length: 00:44:58
    Video: PAL 4:3 (720x576) VBR
    Audio:
  • Russian (Dolby AC3, 6 ch)
    Subtitles:
  • Ukrainian
    VTS_07 :
    Play Length: 00:45:10
    Video: PAL 4:3 (720x576) VBR
    Audio:
  • Russian (Dolby AC3, 6 ch)
    Subtitles:
  • Ukrainian
    * Menus Information *
    VIDEO_TS Menu
    Video:
  • PAL 4:3 (720x576) VBR
  • Auto Pan&Scan, Auto Letterboxed
    Russian Language Unit :
  • Title Menu
    VTS_01 Menu
    Video:
  • PAL 4:3 (720x576) VBR
    Audio:
  • Not specified (Dolby AC3, 2 ch)
    Russian Language Unit :
  • Root Menu
    VTS_02 Menu
    Video:
  • PAL 4:3 (720x576) VBR
    Russian Language Unit :
  • Root Menu
    VTS_03 Menu
    Video:
  • PAL 4:3 (720x576) VBR
    Russian Language Unit :
  • Root Menu
    VTS_04 Menu
    Video:
  • PAL 4:3 (720x576) VBR
    Russian Language Unit :
  • Root Menu
    VTS_05 Menu
    Video:
  • PAL 4:3 (720x576) VBR
    Russian Language Unit :
  • Root Menu
    VTS_06 Menu
    Video:
  • PAL 4:3 (720x576) VBR
    Russian Language Unit :
  • Root Menu
    VTS_07 Menu
    Video:
  • PAL 4:3 (720x576) VBR
    Russian Language Unit :
  • Root Menu

MediaInfo

Формат : MPEG-PS
Размер файла : 1024 Мбайт
Продолжительность : 30 м.
Общий поток : 4717 Кбит/сек
Видео
Идентификатор : 224 (0xE0)
Формат : MPEG Video
Версия формата : Version 2
Профиль формата : [email protected]
Параметр BVOP формата : Да
Параметр матрицы формата : Выборочная
Параметр GOP формата : M=2, N=15
Продолжительность : 30 м.
Вид битрейта : Переменный
Битрейт : 4175 Кбит/сек
Максимальный битрейт : 9800 Кбит/сек
Ширина : 720 пикселей
Высота : 576 пикселей
Соотношение сторон : 4:3
Частота кадров : 25,000 кадров/сек
Стандарт вещания : PAL
Цветовое пространство : YUV
Субдискретизация насыщенности : 4:2:0
Битовая глубина : 8 бит
Тип развёртки : Чересстрочная
Порядок развёртки : Нижнее поле первое
Метод сжатия : С потерями
Бит/(Пиксели*Кадры) : 0.403
Размер потока : 906 Мбайт (89%)
Аудио
Идентификатор : 189 (0xBD)-128 (0x80)
Формат : AC-3
Формат/Информация : Audio Coding 3
Расширение режима : CM (complete main)
Режим смешивания : DVD-Video
Продолжительность : 30 м.
Вид битрейта : Постоянный
Битрейт : 448 Кбит/сек
Каналы : 6 каналов
Расположение каналов : Front: L C R, Side: L R, LFE
Частота : 48,0 КГц
Битовая глубина : 16 бит
Метод сжатия : С потерями
Размер потока : 97,2 Мбайт (9%)
Текст
Идентификатор : 189 (0xBD)-32 (0x20)
Формат : RLE
Формат/Информация : Run-length encoding
Режим смешивания : DVD-Video
Меню

Скриншоты меню

       
   
Скриншоты:                
Other forum [Profile] [PM]
Display posts from previous:    
Reply to topic

The time now is: Today 17:23

All times are GMT + 3 Hours



You cannot post new topics in this forum
You cannot reply to topics in this forum
You cannot edit your posts in this forum
You cannot delete your posts in this forum
You cannot vote in polls in this forum
You cannot attach files in this forum
You cannot download files in this forum