Today is a free download without charge Download

Жена офицера [8 серий из 8] (2013) SATRip

Reply to topic
 
Author
Message

UndegraundMen ®

Longevity: 8 years 9 months

Posts: 25145

Торрент-статистика

Post 04-Mar-2013 06:24

[Quote]

Жена офицера [8 серий из 8] (2013) SATRip- Русское название: Жена офицера
Производство: Россия
Год выпуска: 2013
Жанр: Детектив, Мелодрама
Перевод: Не требуется (Русский)

Дата российской премьеры: 18 февраля 2013
Режиссер: Сергей Басин
Актеры: Иван Стебунов, Ярослав Бойко, Валерия Ланская, Эмилия Спивак, Владимир Литвинов
Описание фильма:
Молодая и амбициозная журналистка Лика отправляется в отдаленный гарнизон вслед за своим возлюбленным - призывником Денисом. Она решает написать разоблачительный материал о тотальном разложении армии и для этого устраивается в гарнизон продавщицей. Но жизнь в этом, на первый взгляд, тихом месте не обещает быть спокойной. Лике приходится включиться в опасные расследования, которые перевернут всю ее дальнейшую жизнь.
Продолжительность: 8 х ~ 00:42:26 серия
Качество видео: SATRip
Видеокодек: DivX 5
Битрейт видео: ~1600 Kbit/s
Размер кадра: 704 x 384
Аудиокодек: MP3, 2.0
Битрейт аудио: 128 Kbit/s

MediaInfo

Общее
Полное имя : D:ТоррентыЖена офицера.2013.SATRipЖена офицера.01.avi
Формат : AVI
Формат/Информация : Audio Video Interleave
Размер файла : 533 Мбайт
Продолжительность : 42 м.
Общий поток : 1741 Кбит/сек
Библиотека кодирования : Boilsoft AVI tool build 1/release
Видео
Идентификатор : 0
Формат : MPEG-4 Visual
Профиль формата : [email protected]
Параметр BVOP формата : Нет
Параметр QPel формата : Нет
Параметр GMC формата : Без точки перехода
Параметр матрицы формата : Default (H.263)
Идентификатор кодека : DX50
Идентификатор кодека/Подсказка : DivX 5
Продолжительность : 42 м.
Битрейт : 1600 Кбит/сек
Ширина : 704 пикс.
Высота : 384 пикс.
Соотношение сторон : 16:9
Частота кадров : 25,000 кадр/сек
Цветовое пространство : YUV
Подвыборка цветности : 4:2:0
Битовая глубина : 8 бит
Тип развёртки : Прогрессивная
Метод сжатия : С потерями
Бит/(Пиксели*Кадры) : 0.237
Размер потока : 490 Мбайт (92%)
Библиотека кодирования : XviD 1.2.1 (UTC 2008-12-04)
Аудио
Идентификатор : 1
Формат : MPEG Audio
Версия формата : Version 1
Профиль формата : Layer 3
Режим : Joint stereo
Расширение режима : MS Stereo
Идентификатор кодека : 55
Идентификатор кодека/Подсказка : MP3
Продолжительность : 42 м.
Вид битрейта : Постоянный
Битрейт : 128 Кбит/сек
Каналы : 2 канала
Частота : 48,0 КГц
Метод сжатия : С потерями
Размер потока : 39,2 Мбайт (7%)
Выравнивание : Соединение по промежуткам
Продолжительность промежутка : 24 мс. (0,60 видеокадр)
Время предзагрузки промежутка : 504 ms
Библиотека кодирования : LAME3.98.2
Скриншоты:
           
Время раздачи: 24/7 по возможности
Other forum [Profile] [PM]
Display posts from previous:    
Reply to topic

The time now is: Today 00:10

All times are GMT + 3 Hours



You cannot post new topics in this forum
You cannot reply to topics in this forum
You cannot edit your posts in this forum
You cannot delete your posts in this forum
You cannot vote in polls in this forum
You cannot attach files in this forum
You cannot download files in this forum