Today is a free download without charge Download

Жена офицера (1-8 серии из 8) (2013) DVB

Reply to topic
 
Author
Message

UndegraundMen ®

Longevity: 8 years 9 months

Posts: 25145

Торрент-статистика

Post 04-Mar-2013 06:24

[Quote]

Жена офицера (1-8 серии из 8) (2013) DVB-
Оригинальное название: Жена офицера
Год выпуска: 2013
Страна: Россия / Вертикаль фильм
Жанр: мелодрама, детектив-Премьера (РФ): 18 февраля 2013 (Россия 1)
Режиссер: Сергей Басин
Актеры: Иван Стебунов, Ярослав Бойко, Валерия Ланская, Эмилия Спивак, Сергей Кошонин, Ирина Ракшина, Руслан Барабанов, Мария Валешная, Виталий Коваленко, Антон Гуляев, Алексей Федькин, Владимир Литвинов, Ирина Конопацкая, Полина Воробьева, Павел Гончаров, Дмитрий Мурашев, Анна Захарова, Андрей Павловец, Ульяна Марковская, Артем Анчуков, Наталья Шостак, Глеб Темнов, Герман Федулов, Ариана Андреева, Александр Разнатовский, Наталья Вершинина, Игорь Чигирь, Светлана Киреева, Григорий Фёдоров, Андрей Лёвин, Сергей Демидов

Описание фильма: Молодая и амбициозная журналистка Лика отправляется в отдаленный гарнизон вслед за своим возлюбленным - призывником Денисом. Она решает написать разоблачительный материал о тотальном разложении армии и для этого устраивается в гарнизон продавщицей. Но жизнь в этом, на первый взгляд, тихом месте не обещает быть спокойной. Лике приходится включиться в опасные расследования, которые перевернут всю ее дальнейшую жизнь....-Продолжительность: серия ~ 00:43
Качество видео: DVB
Видеокодек: MPEG2
Битрейт видео: ~5351 kbps avg
Размер кадра: 720x576**768х576 (4:3), 25.000 fps
Аудиокодек: MPEG Audio Layer 2
Аудио: 48 kHz, 2 ch, ~256 kbps avg
Субтитры: отсутствуют

.

MediaInfo:

Формат : MPEG-PS
Размер файла : 1,71 Гбайт
Продолжительность : 42 м.
Режим общего битрейта : Переменный
Общий поток : 5721 Кбит/сек
Библиотека кодирования : (c) 1998-2012 Womble Multimedia, Inc. / MPEG Video Wizard DVD 5.0.1.100 (03/2011)
Видео
Идентификатор : 224 (0xE0)
Формат : MPEG Video
Версия формата : Version 2
Профиль формата : [email protected]
Параметр BVOP формата : Да
Параметр матрицы формата : Выборочная
Продолжительность : 42 м.
Вид битрейта : Переменный
Битрейт : 5351 Кбит/сек
Максимальный битрейт : 15,0 Мбит/сек
Ширина : 720 пикселей
Высота : 576 пикселей
Соотношение сторон : 4:3
Частота кадров : 25,000 кадров/сек
Стандарт вещания : PAL
Цветовое пространство : YUV
Субдискретизация насыщенности : 4:2:0
Битовая глубина : 8 бит
Тип развёртки : Чересстрочная
Порядок развёртки : Верхнее поле первое
Метод сжатия : С потерями
Бит/(Пиксели*Кадры) : 0.516
Размер потока : 1,60 Гбайт (94%)
Библиотека кодирования : (c) 1998-2012 Womble Multimedia, Inc. / MPEG Video Wizard DVD 5.0.1.100 (03/2011)
Аудио
Идентификатор : 192 (0xC0)
Формат : MPEG Audio
Версия формата : Version 1
Профиль формата : Layer 2
Продолжительность : 42 м.
Вид битрейта : Постоянный
Битрейт : 256 Кбит/сек
Каналы : 2 канала
Частота : 48,0 КГц
Метод сжатия : С потерями
Задержка видео : -40 мс.
Размер потока : 78,5 Мбайт (4%)
Скриншоты:
         
         
Other forum [Profile] [PM]
Display posts from previous:    
Reply to topic

The time now is: Today 17:08

All times are GMT + 3 Hours



You cannot post new topics in this forum
You cannot reply to topics in this forum
You cannot edit your posts in this forum
You cannot delete your posts in this forum
You cannot vote in polls in this forum
You cannot attach files in this forum
You cannot download files in this forum