Today is a free download without charge Download

Восьмидесятые (2 сезон, 1-20 серии из 20) (2013) DVB

Reply to topic
 
Author
Message

UndegraundMen ®

Longevity: 8 years 9 months

Posts: 25145

Торрент-статистика

Post 04-Mar-2013 06:24

[Quote]

Восьмидесятые (2 сезон, 1-20 серии из 20) (2013) DVB-
Оригинальное название: Восьмидесятые
Год выпуска: 2013
Страна: Россия / "Леан-М", "ГудСториМедиа"
Жанр: комедия-Премьера (РФ): 21 января 2013 (телеканал "СТС")
Режиссер: Фёдор Стуков
Актеры: Александр Якин, Наталья Земцова, Александр Половцев, Мария Аронова, Леонид Громов, Дмитрий Белоцерковский, Юлия Сулес, Александр Новицкий, Роман Фомин, Ирина Чипиженко, Александр Мальков, Никита Ефремов, Анастасия Балякина, Артур Ваха, Юрий Королев, Николай Надежкин, Дмитрий Шевченко, Зоя Давыдова, Олег Балашов, Анна Цуканова-Котт, Наталья Карпунина, Игорь Лагутин, Роман Маякин, Елена Лебедева, Виктория Левкина, Олег Смирнов, Олег Комаров, Эдуард Чемодаков, Игорь Бондаренко, Илья Соболев, Дмитрий Собачкин, Максим Ратинер, Алексей Паничев, Екатерина Коновалова, Руслан Спояло, Сергей Климков

Описание фильма: Сериал «Восьмидесятые» - это история про один из самых интересных периодов в жизни нашей страны. Мы как-то обходились без интернета и мобильного телефона. А чтобы передать ключ от квартиры, просто оставляли его под ковриком. Это было странное время, когда нельзя было ничего купить, но достать можно было все. В каждой квартире обязательно стояли югославский гарнитур и шведская стенка, а лучшим подарком были французские духи и электрическая бритва.....-Продолжительность: серия ~ 00:23
Качество видео: DVB
Видеокодек: AVC
Формат: MPEG-TS
Битрейт видео: ~3580 kbps avg
Размер кадра: 720x576**785х576 (4:3), 25.000 fps
Аудиокодек: MPEG Audio Layer 2
Аудио: 48 kHz, 2 ch, ~256 kbps avg
Субтитры: отсутствуют

.

MediaInfo:

Формат : MPEG-TS
Размер файла : 687 Мбайт
Продолжительность : 23 м.
Режим общего битрейта : Переменный
Общий поток : 4038 Кбит/сек
Видео
Идентификатор : 1802 (0x70A)
Идентификатор меню : 1 (0x1)
Формат : AVC
Формат/Информация : Advanced Video Codec
Профиль формата : [url=mailto:[email protected]][email protected][/url]
Параметр CABAC формата : Да
Параметр ReFrames формата : 3 кадра
Идентификатор кодека : 27
Продолжительность : 23 м.
Битрейт : 3580 Кбит/сек
Ширина : 720 пикселей
Высота : 576 пикселей
Соотношение сторон : 4:3
Частота кадров : 25,000 кадров/сек
Стандарт вещания : Component
Цветовое пространство : YUV
Субдискретизация насыщенности : 4:2:0
Битовая глубина : 8 бит
Тип развёртки : Чересстрочная
Порядок развёртки : Верхнее поле первое
Бит/(Пиксели*Кадры) : 0.345
Размер потока : 609 Мбайт (89%)
Основные цвета : BT.601 PAL
Характеристики трансфера : BT.470 System B, BT.470 System G
Коэффициенты матрицы : BT.601
Аудио
Идентификатор : 2802 (0xAF2)
Идентификатор меню : 1 (0x1)
Формат : MPEG Audio
Версия формата : Version 1
Профиль формата : Layer 2
Идентификатор кодека : 3
Продолжительность : 23 м.
Вид битрейта : Постоянный
Битрейт : 256 Кбит/сек
Каналы : 2 канала
Частота : 48,0 КГц
Метод сжатия : С потерями
Размер потока : 43,5 Мбайт (6%)
Язык : English
Скриншоты:
         
         
Other forum [Profile] [PM]
Display posts from previous:    
Reply to topic

The time now is: Today 17:47

All times are GMT + 3 Hours



You cannot post new topics in this forum
You cannot reply to topics in this forum
You cannot edit your posts in this forum
You cannot delete your posts in this forum
You cannot vote in polls in this forum
You cannot attach files in this forum
You cannot download files in this forum